Важное объявление!
У Нас Все раздачи мультитрекерные, при нуле пиров в релизах, можете смело вставать на закачку!
 
Автор Сообщение

HUNTER

Стаж:
4 года 7 месяцев
Сообщений:
61521

Репутация: 101

[+] [-]
Вне форума [Профиль] [ЛС]

Барток Великолепный / Bartok the Magnificent
Страна: США
Жанр: Мультфильм, семейный
Год выпуска: 1999
Продолжительность: 01:05:20
Перевод: Профессиональный (дублированный) Первый канал
Перевод: Профессиональный (многоголосый закадровый) 1+1
Cубтитры: Нет
Оригинальная аудиодорожка: Английский
Режиссер: Дон Блут / Don Bluth, Гари Голдман / Gary Goldman
В ролях: Хэнк Азария, Келси Грэммер, Андреа Мартин, Кэтрин О’Хара, Тим Карри, Дженнифер Тилли, Филлип Ван Дайк, Дидрих Бадер, Келли Мари Бергер, Тед Брунетти.
Описание: Барток - любитель уличных представлений. Он может всем и всегда рассказывать, какой он герой, хотя на самом деле он просто трусливый хвастунишка, и когда приходится доказывать свою храбрость на деле - он трусит. Но когда молодого царевича Ивана похищают, нужен настоящий герой, чтобы победить злую Бабу-ягу и не допустить злую регентшу Людмилу на российский трон. И вот Бартоку приходится самому браться за спасение наследника и найти в себе мужество довести его до конца.
Доп. информация: Исходник http://rutracker.org/forum/viewtopic.php?t=1069495 Добавлен дубляж и многоголосый украинский.
Сэмпл: http://multi-up.com/1057222, http://rusfolder.com/43903144
Качество видео: DVDRip
Формат видео: AVI
Видео: 720x544 (1.32:1), 25 fps, XviD build 47 ~2346 kbps
Аудио: 48 kHz, AC3 Dolby Digital, 2/0 (L,R) ch, ~192 kbps - Russian (Первый канал)
Аудио: 48 kHz, AC3 Dolby Digital, 2/0 (L,R) ch, ~192 kbps - Ukrainian (1+1)
Аудио: 48 kHz, AC3 Dolby Digital, 2/0 (L,R) ch, ~192 kbps - English

MediaInfo

Общее
Полное имя : D:\Барток Великолепный (Bartok the Magnificent) [1999].avi
Формат : AVI
Формат/Информация : Audio Video Interleave
Размер файла : 1,34 Гбайт
Продолжительность : 1 ч. 5 м.
Общий поток : 2944 Кбит/сек
Название фильма : Барток Великолепный (Bartok the Magnificent) [1999]
Программа кодирования : VirtualDubMod 1.5.4.1 (build 2178/release)
Видео
Идентификатор : 0
Формат : MPEG-4 Visual
Профиль формата : Advanced Simple@L5
Параметр BVOP формата : 1
Параметр QPel формата : Нет
Параметр GMC формата : Без точки перехода
Параметр матрицы формата : Выборочная
Идентификатор кодека : XVID
Идентификатор кодека/Подсказка : XviD
Продолжительность : 1 ч. 5 м.
Битрейт : 2348 Кбит/сек
Ширина : 720 пикселей
Высота : 544 пикселя
Соотношение сторон : 4:3
Частота кадров : 25,000 кадров/сек
Цветовое пространство : YUV
Субдискретизация насыщенности : 4:2:0
Битовая глубина : 8 бит
Тип развёртки : Прогрессивная
Метод сжатия : С потерями
Бит/(Пиксели*Кадры) : 0.240
Размер потока : 1,07 Гбайт (80%)
Библиотека кодирования : XviD 1.2.0.dev47 (UTC 2006-11-01)
Аудио #1
Идентификатор : 1
Формат : AC-3
Формат/Информация : Audio Coding 3
Расширение режима : CM (complete main)
Параметр Endianness формата : Big
Идентификатор кодека : 2000
Продолжительность : 1 ч. 5 м.
Вид битрейта : Постоянный
Битрейт : 192 Кбит/сек
Каналы : 2 канала
Расположение каналов : Front: L R
Частота : 48,0 КГц
Битовая глубина : 16 бит
Метод сжатия : С потерями
Размер потока : 89,7 Мбайт (7%)
Выравнивание : Разделение по промежуткам
Продолжительность промежутка : 40 мс. (1,00 видеокадр)
Время предзагрузки промежутка : 500 мс.
Заголовок : Russian
Аудио #2
Идентификатор : 2
Формат : AC-3
Формат/Информация : Audio Coding 3
Расширение режима : CM (complete main)
Параметр Endianness формата : Big
Идентификатор кодека : 2000
Продолжительность : 1 ч. 5 м.
Вид битрейта : Постоянный
Битрейт : 192 Кбит/сек
Каналы : 2 канала
Расположение каналов : Front: L R
Частота : 48,0 КГц
Битовая глубина : 16 бит
Метод сжатия : С потерями
Размер потока : 89,7 Мбайт (7%)
Выравнивание : Разделение по промежуткам
Продолжительность промежутка : 40 мс. (1,00 видеокадр)
Время предзагрузки промежутка : 500 мс.
Заголовок : Ukrainian
Аудио #3
Идентификатор : 3
Формат : AC-3
Формат/Информация : Audio Coding 3
Расширение режима : CM (complete main)
Параметр Endianness формата : Big
Идентификатор кодека : 2000
Продолжительность : 1 ч. 5 м.
Вид битрейта : Постоянный
Битрейт : 192 Кбит/сек
Каналы : 2 канала
Расположение каналов : Front: L R
Частота : 48,0 КГц
Битовая глубина : 16 бит
Метод сжатия : С потерями
Размер потока : 89,7 Мбайт (7%)
Выравнивание : Разделение по промежуткам
Продолжительность промежутка : 40 мс. (1,00 видеокадр)
Время предзагрузки промежутка : 500 мс.
Заголовок : English

AviInfo

File: Барток Великолепный (Bartok the Magnificent) [1999].avi
FileSize: 1375.83 Mb ( 1 442 666 496 bytes )
Play length: 01:05:20.879 (98022 frames)
Subtitles: Not Present
Video: 720x544 (1.32:1), 25 fps, XviD build 47 ~2346 kbps avg, 0.24 bit/pixel
Audio #1: 48 kHz, AC3 Dolby Digital, 2/0 (L,R) ch, ~192 kbps - Russian
Audio #2: 48 kHz, AC3 Dolby Digital, 2/0 (L,R) ch, ~192 kbps - Ukrainian
Audio #3: 48 kHz, AC3 Dolby Digital, 2/0 (L,R) ch, ~192 kbps - English

Скриншот c названием фильма

Скриншоты


_________________
Показать сообщения:    

Текущее время: Сегодня 15:41

Часовой пояс: GMT



Вы не можете начинать темы
Вы не можете отвечать на сообщения
Вы не можете редактировать свои сообщения
Вы не можете удалять свои сообщения
Вы не можете голосовать в опросах
Вы не можете прикреплять файлы к сообщениям
Вы не можете скачивать файлы
Наши партнеры: интернет магазин Ивановского трикотажа textilla.ru