Важное объявление!
У Нас Все раздачи мультитрекерные, при нуле пиров в релизах, можете смело вставать на закачку!
Статистика раздачи
Размер:     |    Зарегистрирован:     |    Скачан:     |   
Нет
 
     
 
 
Автор Сообщение

HUNTER

Стаж:
5 лет 1 месяц
Сообщений:
68429

Репутация: 101

[+] [-]
Вне форума [Профиль] [ЛС]

Барселона / Barcelona
Страна: США
Жанр: драма, мелодрама, комедия
Год выпуска: 1994
Продолжительность: 01:41:41
Перевод: Авторский (одноголосый закадровый) - Сергей Визгунов
Cубтитры: английские
Оригинальная аудиодорожка: английский-Режиссер: Уит Стиллман / Whit Stillman-В ролях: Тейлор Николс, Крис Эйгеман, Тушка Берген, Мира Сорвино, Пеп Мунне, Хеллена Шмид, Нурия Бадия, Томас Гибсон, Джек Гилпин, Пере Понсе-Описание: Американец Фред постоянно рассказывает испанским девушкам разные небылицы про своего брата Теда, например, что тот садомазохист и носит кожаное белье. Как ни странно, это вызывает у девушек интерес к Теду.
В остальных же случаях неугомонная болтливость Фреда доставляет обоим братьям массу неприятностей, что, как оказалось, было его неистребимой чертой.-Релиз:
by delia-Качество видео: BDRip | Рип от SbR
Формат видео: MKV
Видео: 1280x694 at 23.976 fps, x264@L4.1, ~11500 kbps avg
Аудио: Russian: 48 kHz, AC3, 1/0 (C) ch, ~128.00 kbps avg |С.Визгунов|
Аудио: English: 48 kHz, FLAC 2.0, ~548.00 kbps avg
Аудио: English: 48 kHz, AAC, 2/0 (L,R) ch, ~77.00 kbps avg-Скачать сэмпл-Цитата:
Цитата:

  • Сохранены оригинальные главы как на Blu-ray.

MediaInfo

Код:
Формат                                   : Matroska
Версия формата                           : Version 4 / Version 2
Размер файла                             : 8,70 Гбайт
Продолжительность                        : 1 ч. 41 м.
Режим общего битрейта                    : Переменный
Общий поток                              : 12,2 Мбит/сек
Дата кодирования                         : UTC 2016-10-13 07:15:42
Программа кодирования                    : mkvmerge v9.4.2 ('So High') 64bit
Библиотека кодирования                   : libebml v1.3.4 + libmatroska v1.4.5
Обложка                                  : Yes
Attachments                              : cover.jpg
Видео
Идентификатор                            : 1
Формат                                   : AVC
Формат/Информация                        : Advanced Video Codec
Профиль формата                          : High@L4.1
Параметр CABAC формата                   : Да
Параметр ReFrames формата                : 9 кадров
Идентификатор кодека                     : V_MPEG4/ISO/AVC
Продолжительность                        : 1 ч. 41 м.
Битрейт                                  : 11,5 Мбит/сек
Ширина                                   : 1280 пикселей
Высота                                   : 694 пикселя
Соотношение сторон                       : 1,85:1
Режим частоты кадров                     : Постоянный
Частота кадров                           : 23,976 (23976/1000) кадра/сек
Цветовое пространство                    : YUV
Субдискретизация насыщенности            : 4:2:0
Битовая глубина                          : 8 бит
Тип развёртки                            : Прогрессивная
Бит/(Пиксели*Кадры)                      : 0.540
Размер потока                            : 8,16 Гбайт (94%)
Библиотека кодирования                   : x264 core 148 r2705+54 9f484c1 t_mod_Custom [8-bit@all X86_64]
Настройки программы                      : cabac=1 / ref=9 / deblock=1:-3:-3 / analyse=0x3:0x133 / me=umh / subme=10 / psy=1 / fade_compensate=0.00 / psy_rd=1.10:0.05 / mixed_ref=1 / me_range=32 / chroma_me=1 / trellis=2 / 8x8dct=1 / cqm=0 / deadzone=21,11 / fast_pskip=1 / chroma_qp_offset=-3 / threads=6 / lookahead_threads=1 / sliced_threads=0 / nr=0 / decimate=1 / interlaced=0 / bluray_compat=0 / constrained_intra=0 / fgo=0 / bframes=8 / b_pyramid=2 / b_adapt=2 / b_bias=0 / direct=3 / weightb=1 / open_gop=0 / weightp=2 / keyint=250 / keyint_min=23 / scenecut=40 / intra_refresh=0 / rc=2pass / mbtree=0 / bitrate=11500 / ratetol=1.0 / qcomp=0.70 / qpmin=0:0:0 / qpmax=69:69:69 / qpstep=4 / cplxblur=20.0 / qblur=0.5 / ip_ratio=1.20 / pb_ratio=1.10 / aq=1:0.65 / aq-sensitivity=10.00 / aq-factor=1.00:1.00:1.00 / aq2=0 / aq3=0
Язык                                     : English
Default                                  : Да
Forced                                   : Нет
Цветовой диапазон                        : Limited
Коэффициенты матрицы                     : BT.709
Аудио #1
Идентификатор                            : 2
Формат                                   : AC-3
Формат/Информация                        : Audio Coding 3
Расширение режима                        : CM (complete main)
Параметр Endianness формата              : Big
Идентификатор кодека                     : A_AC3
Продолжительность                        : 1 ч. 41 м.
Вид битрейта                             : Постоянный
Битрейт                                  : 128 Кбит/сек
Каналы                                   : 1 канал
Расположение каналов                     : Front: C
Частота                                  : 48,0 КГц
Частота кадров                           : 31,250 кадров/сек (1536 spf)
Метод сжатия                             : С потерями
Размер потока                            : 93,1 Мбайт (1%)
Заголовок                                : Одноголосый закадровый, С.Визгунов
Язык                                     : Russian
Default                                  : Да
Forced                                   : Нет
Аудио #2
Идентификатор                            : 3
Формат                                   : FLAC
Формат/Информация                        : Free Lossless Audio Codec
Идентификатор кодека                     : A_FLAC
Продолжительность                        : 1 ч. 41 м.
Вид битрейта                             : Переменный
Битрейт                                  : 548 Кбит/сек
Каналы                                   : 2 канала
Расположение каналов                     : Front: L R
Частота                                  : 48,0 КГц
Частота кадров                           : 11,719 кадров/сек (4096 spf)
Битовая глубина                          : 16 бит
Размер потока                            : 398 Мбайт (4%)
Библиотека кодирования                   : libFLAC 1.2.1 (UTC 2007-09-17)
Язык                                     : English
Default                                  : Нет
Forced                                   : Нет
Аудио #3
Идентификатор                            : 4
Формат                                   : AAC
Формат/Информация                        : Advanced Audio Codec
Профиль формата                          : LC
Идентификатор кодека                     : A_AAC
Продолжительность                        : 1 ч. 41 м.
Битрейт                                  : 77,5 Кбит/сек
Каналы                                   : 2 канала
Расположение каналов                     : Front: L R
Частота                                  : 48,0 КГц
Частота кадров                           : 46,875 кадров/сек (1024 spf)
Метод сжатия                             : С потерями
Задержка видео                           : 9 мс.
Размер потока                            : 56,3 Мбайт (1%)
Заголовок                                : commentary
Язык                                     : English
Default                                  : Нет
Forced                                   : Нет
Текст #1
Идентификатор                            : 5
Формат                                   : UTF-8
Идентификатор кодека                     : S_TEXT/UTF8
Идентификатор кодека/Информация          : UTF-8 Plain Text
Продолжительность                        : 1 ч. 39 м.
Битрейт                                  : 94 бит/сек
Count of elements                        : 1571
Размер потока                            : 68,9 Кбайт (0%)
Язык                                     : English
Default                                  : Нет
Forced                                   : Нет
Текст #2
Идентификатор                            : 6
Формат                                   : UTF-8
Идентификатор кодека                     : S_TEXT/UTF8
Идентификатор кодека/Информация          : UTF-8 Plain Text
Продолжительность                        : 1 ч. 39 м.
Битрейт                                  : 97 бит/сек
Count of elements                        : 1609
Размер потока                            : 71,1 Кбайт (0%)
Заголовок                                : SDH
Язык                                     : English
Default                                  : Нет
Forced                                   : Нет
Меню
00:00:00.000                             : en:00:00:00.000
00:05:40.213                             : en:00:05:40.213
00:09:16.389                             : en:00:09:16.389
00:15:34.390                             : en:00:15:34.390
00:17:41.852                             : en:00:17:41.852
00:22:13.664                             : en:00:22:13.664
00:24:55.701                             : en:00:24:55.701
00:30:00.839                             : en:00:30:00.839
00:36:24.306                             : en:00:36:24.306
00:39:26.572                             : en:00:39:26.572
00:46:45.594                             : en:00:46:45.594
00:51:36.467                             : en:00:51:36.467
00:55:53.557                             : en:00:55:53.557
01:01:02.699                             : en:01:01:02.699
01:06:22.728                             : en:01:06:22.728
01:10:17.630                             : en:01:10:17.630
01:14:48.233                             : en:01:14:48.233
01:18:36.086                             : en:01:18:36.086
01:21:35.556                             : en:01:21:35.556
01:24:38.864                             : en:01:24:38.864
01:27:37.668                             : en:01:27:37.668
01:31:20.015                             : en:01:31:20.015
01:36:47.384                             : en:01:36:47.384

Скриншоты


_________________
Показать сообщения:    

Текущее время: Сегодня 11:14

Часовой пояс: GMT



Вы не можете начинать темы
Вы не можете отвечать на сообщения
Вы не можете редактировать свои сообщения
Вы не можете удалять свои сообщения
Вы не можете голосовать в опросах
Вы не можете прикреплять файлы к сообщениям
Вы не можете скачивать файлы