Важное объявление!
У Нас Все раздачи мультитрекерные, при нуле пиров в релизах, можете смело вставать на закачку!
 
Автор Сообщение

HUNTER

Стаж:
4 года 7 месяцев
Сообщений:
61639

Репутация: 101

[+] [-]
Вне форума [Профиль] [ЛС]

Бармен-
Год выпуска: 2015
Страна: Россия
Жанр: комедия
Продолжительность: 01:31:57-Перевод: Не требуется [iTunes]
Режиссер: Дина Штурманова
В ролях: Виталий Гогунский (Вадик), Иван Охлобыстин (бармен), Юлия Паршута (Юлия), Юрий Стоянов (папа Юлии), Жанна Эппле (мама Юлии), Константин Крюков (Артур), Антон Богданов (Рома), Ольга Бузова (Вика), Евгения Ярушникова (Лера), Константин Федоров (Кабан), Константин Соколов (Валера), Евгений Кравченко (Бум)-Описание: Вадик мечтает изменить свою скучную жизнь, но страх неудачи и неуверенность в себе мешают парню двигаться к цели. Все меняется, когда Вадик случайно забредает в пустой бар и выпивает коктейль по рецепту загадочного Бармена. Отныне он - мистер Харизма, и весь мир лежит у его ног. Даже красавица Юля, о которой раньше он не смел и мечтать, обратила на него внимание. Новый коктейль - новый талант: сегодня Вадик - интеллектуал, завтра - король танцпола... Вот только действуют волшебные напитки недолго и имеют не очень приятный побочный эффект...--Качество: WEB-DL 720p
Контейнер: MKV
Видео кодек: AVC
Аудио кодек: AC3
Видео: AVC, 1280x532 (2.40:1), 3400 kbps, 24 fps, 0,208 bpp
Аудио: / AC3 / 5.1 / 48 kHz / 384 kbps / 16 bit-

Рейтинг

-

Скриншоты

Media Info

General
Unique ID : 215886284241257084782243144359247534918 (0xA26A2F99C82014B2974AFF08130EDB46)
Complete name : D:\Бармен.2015.WEB-DL.720p.mkv
Format : Matroska
Format version : Version 4 / Version 2
File size : 2.43 GiB
Duration : 1h 31mn
Overall bit rate : 3 784 Kbps
Encoded date : UTC 2015-07-16 20:26:33
Writing application : mkvmerge v7.8.0 ('River Man') 32bit built on Mar 27 2015 16:18:02
Writing library : libebml v1.3.1 + libmatroska v1.4.2
Video
ID : 1
Format : AVC
Format/Info : Advanced Video Codec
Format profile : High@L4.1
Format settings, CABAC : Yes
Format settings, ReFrames : 15 frames
Codec ID : V_MPEG4/ISO/AVC
Duration : 1h 31mn
Bit rate : 3 400 Kbps
Width : 1 280 pixels
Height : 532 pixels
Display aspect ratio : 2.40:1
Frame rate mode : Constant
Frame rate : 24.000 fps
Color space : YUV
Chroma subsampling : 4:2:0
Bit depth : 8 bits
Scan type : Progressive
Bits/(Pixel*Frame) : 0.208
Stream size : 2.14 GiB (88%)
Writing library : x264 core 128 r2216M 198a7ea
Encoding settings : cabac=1 / ref=16 / deblock=1:0:0 / analyse=0x3:0x133 / me=umh / subme=9 / psy=1 / psy_rd=1.00:0.20 / mixed_ref=1 / me_range=16 / chroma_me=1 / trellis=0 / 8x8dct=1 / cqm=0 / deadzone=21,11 / fast_pskip=1 / chroma_qp_offset=-2 / threads=4 / lookahead_threads=1 / sliced_threads=0 / nr=0 / decimate=1 / interlaced=0 / bluray_compat=0 / constrained_intra=0 / bframes=16 / b_pyramid=1 / b_adapt=0 / b_bias=0 / direct=3 / weightb=1 / open_gop=0 / weightp=0 / keyint=240 / keyint_min=24 / scenecut=40 / intra_refresh=0 / rc_lookahead=40 / rc=2pass / mbtree=1 / bitrate=3400 / ratetol=1.0 / qcomp=0.60 / qpmin=10 / qpmax=51 / qpstep=4 / cplxblur=20.0 / qblur=0.5 / ip_ratio=1.40 / aq=1:1.00
Language : English
Default : Yes
Forced : No
DURATION : 01:31:57.250000000
NUMBER_OF_FRAMES : 132414
NUMBER_OF_BYTES : 2343675408
_STATISTICS_WRITING_APP : mkvmerge v7.8.0 ('River Man') 32bit built on Mar 27 2015 16:18:02
_STATISTICS_WRITING_DATE_UTC : 2015-07-16 20:26:33
_STATISTICS_TAGS : BPS DURATION NUMBER_OF_FRAMES NUMBER_OF_BYTES
Audio
ID : 2
Format : AC-3
Format/Info : Audio Coding 3
Mode extension : CM (complete main)
Format settings, Endianness : Big
Codec ID : A_AC3
Duration : 1h 31mn
Bit rate mode : Constant
Bit rate : 384 Kbps
Channel count : 6 channels
Channel positions : Front: L C R, Side: L R, LFE
Sampling rate : 48.0 KHz
Bit depth : 16 bits
Compression mode : Lossy
Stream size : 253 MiB (10%)
Language : Russian
Default : Yes
Forced : No
DURATION : 01:31:57.312000000
NUMBER_OF_FRAMES : 172416
NUMBER_OF_BYTES : 264830976
_STATISTICS_WRITING_APP : mkvmerge v7.8.0 ('River Man') 32bit built on Mar 27 2015 16:18:02
_STATISTICS_WRITING_DATE_UTC : 2015-07-16 20:26:33
_STATISTICS_TAGS : BPS DURATION NUMBER_OF_FRAMES NUMBER_OF_BYTES
Menu
00:00:00.000 : en:Глава 1
00:04:23.000 : en:Глава 2
00:10:33.000 : en:Глава 3
00:15:18.000 : en:Глава 4
00:21:28.000 : en:Глава 5
00:26:21.000 : en:Глава 6
00:30:32.000 : en:Глава 7
00:35:38.000 : en:Глава 8
00:39:54.000 : en:Глава 9
00:45:20.000 : en:Глава 10
00:51:52.000 : en:Глава 11
00:56:16.000 : en:Глава 12
01:02:50.000 : en:Глава 13
01:07:58.000 : en:Глава 14
01:14:00.000 : en:Глава 15
01:19:05.000 : en:Глава 16
01:25:17.000 : en:Глава 17

_________________
Показать сообщения:    

Текущее время: Сегодня 19:14

Часовой пояс: GMT



Вы не можете начинать темы
Вы не можете отвечать на сообщения
Вы не можете редактировать свои сообщения
Вы не можете удалять свои сообщения
Вы не можете голосовать в опросах
Вы не можете прикреплять файлы к сообщениям
Вы не можете скачивать файлы
Наши партнеры: интернет магазин Ивановского трикотажа textilla.ru