Ивановский Торрент трекер
Яндекс.Погода
 

[Цитировать]
HUNTER

Барби: Рок-принцесса / Barbie in Rock 'N Royals
Страна: США / Universal Studios
Жанр: Мультфильм, семейный
Продолжительность: 01:23:42
Год выпуска: 2015
Перевод: Профессиональный (дублированный) - Чистый звук
Русские субтитры: нет
Режиссёр: Карен Дж. Ллойд / Karen J. Lloyd
Роли озвучивали: Келли Шеридан, Кьяра Дзанни, Бетани Браун, Девин Далтон, Майкл Добсон, Брианна Драммонд, Рэйчел Харрисон, Алессандро Джулиани, Питер Келамис, Омари Ньютон
Описание: Жизнь принцессы Кортни переворачивается с ног на голову, когда она меняется местами со знаменитой рок-певицей Эрикой. При отправлении в летний лагерь случается организационная путаница, и принцессу Кортни отправляют в лагерь для поп-певиц, а Эрику — в королевский лагерь. Пока начальники лагерей пытаются устранить беспорядок, Эрика и Кортни приспосабливаются к новой для себя среде и развлекаются, заводя новых друзей. А когда девушки узнают, что из-за враждующих боссов оба лагеря могут закрыть, они решают объединить свои таланты, чтобы выступить с уникальным музыкальным номером.
Семпл: http://multi-up.com/1071899
Качество: WEB-DLRip
Формат: AVI
Видео: 720x400, 23.976 fps, XviD ~1946 kbps
Аудио 1: 48 kHz, AC3, 2/0 ch, ~192 kbps [Русский]
Аудио 2: 48 kHz, AC3, 2/0 ch, ~192 kbps [Английский]
Субтитры: отсутствуют

Подробные технические данные

General Complete name : Barbi.rok.princessa.2015.D.WEBDLRip.avi Format : AVI Format/Info : Audio Video Interleave File size : 1.37 GiB Duration : 1h 23mn Overall bit rate : 2 343 Kbps Writing application : VirtualDubMod 1.5.10.2 (build 2540/release) Writing library : VirtualDubMod build 2540/release Video #0 ID : 0 Format : MPEG-4 Visual Format profile : Advanced Simple@L5 Format settings, BVOP : 2 Format settings, QPel : No Format settings, GMC : No warppoints Format settings, Matrix : Default (MPEG) Codec ID : XVID Codec ID/Hint : XviD Duration : 1h 23mn Bit rate : 1 947 Kbps Width : 720 pixels Height : 400 pixels Display aspect ratio : 16:9 Frame rate : 23.976 fps Color space : YUV Chroma subsampling : 4:2:0 Bit depth : 8 bits Scan type : Progressive Compression mode : Lossy Bits/(Pixel*Frame) : 0.282 Stream size : 1.14 GiB (83%) Writing library : XviD 1.2.1 (UTC 2008-12-04) Audio #1 ID : 1 Format : AC-3 Format/Info : Audio Coding 3 Mode extension : CM (complete main) Format settings, Endianness : Big Codec ID : 2000 Duration : 1h 23mn Bit rate mode : Constant Bit rate : 192 Kbps Channel(s) : 2 channels Channel positions : Front: L R Sampling rate : 48.0 KHz Bit depth : 16 bits Compression mode : Lossy Stream size : 114 MiB (8%) Alignment : Split accross interleaves Interleave, duration : 42 ms (1.01 video frame) Interleave, preload duration : 500 ms Audio #2 ID : 2 Format : AC-3 Format/Info : Audio Coding 3 Mode extension : CM (complete main) Format settings, Endianness : Big Codec ID : 2000 Duration : 1h 23mn Bit rate mode : Constant Bit rate : 192 Kbps Channel(s) : 2 channels Channel positions : Front: L R Sampling rate : 48.0 KHz Bit depth : 16 bits Compression mode : Lossy Stream size : 114 MiB (8%) Alignment : Split accross interleaves Interleave, duration : 42 ms (1.01 video frame) Interleave, preload duration : 500 ms

Скриншоты



Показать сообщения:    

Текущее время: 16-Дек 07:29

Часовой пояс: UTC ± 0


Вы не можете начинать темы
Вы не можете отвечать на сообщения
Вы не можете редактировать свои сообщения
Вы не можете удалять свои сообщения
Вы не можете голосовать в опросах
Вы не можете прикреплять файлы к сообщениям
Вы не можете скачивать файлы

!ВНИМАНИЕ!
Сайт не предоставляет электронные версии произведений, а занимается лишь коллекционированием и каталогизацией ссылок, присылаемых и публикуемых на форуме нашими читателями. Если вы являетесь правообладателем какого-либо представленного материала и не желаете, чтобы ссылка на него находилась в нашем каталоге, свяжитесь с нами, и мы незамедлительно удалим ее. Файлы для обмена на трекере предоставлены пользователями сайта, и администрация не несет ответственности за их содержание. Просьба не заливать файлы, защищенные авторскими правами, а также файлы нелегального содержания!