Ивановский Торрент трекер
Яндекс.Погода
 

[Цитировать]
HUNTER

Барби: Рождественская история / Barbie In A Christmas Carol

Год выпуска: 2008
Страна: США, Universal Pictures Rus
Жанр: мультфильм, детский
Продолжительность: 01:15:59
Перевод: Профессиональный (полное дублирование)
Русские субтитры: нет
Режиссер: Уильям Лау / William Lau
В ролях: Линна Арая, Морвенна Банкс, Катлин Барр, Шантия Флеминг, Пам Хятт, Мелисса Ляинс, Келли Шеридан
Описание: Barbie: Рождественская история - это добрая и светлая адаптация классического рассказа Чарльза Диккенса, полная любимых рождественских песен, великолепных нарядов, смеха и шуток! Barbie сыграла Иден Старлинг, блистательную примадонну одного из театров викторианского Лондона... История, наполненная воодушевленным рождественским настроением, сказочным образом действий и юмора, порадует всю семью в зимние праздники!- -Качество: DVDRip (Сэмпл)
Формат: AVI
Видео: 720x400 (1.80:1), 25 fps, XviD ~2103 kbps avg, 0.29 bit/pixel
Аудио #1: 48 kHz, AC3 Dolby Digital, 3/2 (L,C,R,l,r) + LFE ch, ~448 kbps (RUS)
Аудио #2: 48 kHz, AC3 Dolby Digital, 2/0 (L,R) ch, ~192 kbps (ENG)

MediaInfo

GeneralComplete name : Barbi.Rozhdestvenskaya.istoriya_2008_Olu6ka.aviFormat : AVIFormat/Info : Audio Video InterleaveFile size : 1.46 GiBDuration : 1h 15mnOverall bit rate : 2 757 KbpsWriting application : VirtualDubModRus 1.5.10.2 (build 2542/release)Writing library : VirtualDubMod build 2542/release
VideoID : 0Format : MPEG-4 VisualFormat profile : Advanced Simple@L5Format settings, BVOP : 1Format settings, QPel : NoFormat settings, GMC : No warppointsFormat settings, Matrix : CustomCodec ID : XVIDCodec ID/Hint : XviDDuration : 1h 15mnBit rate : 2 103 KbpsWidth : 720 pixelsHeight : 400 pixelsDisplay aspect ratio : 16:9Frame rate : 25.000 fpsColor space : YUVChroma subsampling : 4:2:0Bit depth : 8 bitsScan type : ProgressiveCompression mode : LossyBits/(Pixel*Frame) : 0.292Stream size : 1.12 GiB (76%)Writing library : XviD 65
Audio #1ID : 1Format : AC-3Format/Info : Audio Coding 3Mode extension : CM (complete main)Format settings, Endianness : BigCodec ID : 2000Duration : 1h 15mnBit rate mode : ConstantBit rate : 448 KbpsChannel count : 6 channelsChannel positions : Front: L C R, Side: L R, LFESampling rate : 48.0 KHzBit depth : 16 bitsCompression mode : LossyStream size : 243 MiB (16%)Alignment : Split accross interleavesInterleave, duration : 40 ms (1.00 video frame)Interleave, preload duration : 500 ms
Audio #2ID : 2Format : AC-3Format/Info : Audio Coding 3Format profile : Dolby DigitalMode extension : CM (complete main)Format settings, Endianness : BigCodec ID : 2000Duration : 1h 15mnBit rate mode : ConstantBit rate : 192 KbpsChannel count : 2 channelsChannel positions : Front: L RSampling rate : 48.0 KHzBit depth : 16 bitsCompression mode : LossyStream size : 104 MiB (7%)Alignment : Split accross interleavesInterleave, duration : 40 ms (1.00 video frame)Interleave, preload duration : 500 ms

Сравнения

В принципе, они не нужны... размеры разные. Но все же...
http://rutracker.org/forum/viewtopic.php?t=1242424 - Перевод: Любительский (двухголосый закадровый)
Сравнение-http://rutracker.org/forum/viewtopic.php?t=1285425 - Перевод: Профессиональный (полное дублирование
Сравнение
Спасибо Ibraghim и Oleg39 за исходники!Раздача от группы:


Показать сообщения:    

Текущее время: 13-Дек 03:12

Часовой пояс: UTC ± 0


Вы не можете начинать темы
Вы не можете отвечать на сообщения
Вы не можете редактировать свои сообщения
Вы не можете удалять свои сообщения
Вы не можете голосовать в опросах
Вы не можете прикреплять файлы к сообщениям
Вы не можете скачивать файлы

!ВНИМАНИЕ!
Сайт не предоставляет электронные версии произведений, а занимается лишь коллекционированием и каталогизацией ссылок, присылаемых и публикуемых на форуме нашими читателями. Если вы являетесь правообладателем какого-либо представленного материала и не желаете, чтобы ссылка на него находилась в нашем каталоге, свяжитесь с нами, и мы незамедлительно удалим ее. Файлы для обмена на трекере предоставлены пользователями сайта, и администрация не несет ответственности за их содержание. Просьба не заливать файлы, защищенные авторскими правами, а также файлы нелегального содержания!