Ивановский Торрент трекер
Яндекс.Погода
 

[Цитировать]
HUNTER

Барби и щенки в поисках сокровищ / Barbie & Her Sisters in the Great Puppy Adventurer
Год выпуска: 2015
Страна: США
Жанр: приключения, мультфильм
Продолжительность: 01:12:00
Перевод: Профессиональный (дублированный)
Русские субтитры: телетекст
Режиссёр: Эндрю Тэн / Andrew Tan
Описание: Барби с сёстрами и их очаровательные щенки отправляются на охоту за древними сокровищами.
Однажды летом Барби и её сестры Скиппер, Стейси и Челси приезжают погостить к бабушке. Девочек ждет сюрприз: недавно у бабушкиной собаки родились чудесные щенки, и каждая из сестер выбирает себе любимца. Играя в прятки на чердаке, щенки находят старую карту и приносят ее девочкам. Бабушка рассказывает внучкам, что карта может привести их к давно потерянным сокровищам, спрятанным где-то в городе.
Сёстры, а вместе с ними и четверо любопытных щенков, отправляются на захватывающие поиски сокровищ! Во время своего путешествия они поймут, что величайшие сокровища на земле — это любовь и радость, которыми они делятся друг с другом.
Доп. информация:

Трансляция спутникового канала:

Релиз группы:
Семпл: https://yadi.sk/i/GIm8VTm6kJUBc
Качество видео: DVB
Формат видео: MPEG-TS
Видео: MPEG4 Video (H264), 720x576@785x576 (4:3), анаморф, 25 fps, 2300 kbps
Аудио: MPEG Audio, 2 сh, 48 kHz, 192 kbps

MediaInfo

G:\Барби и щенки в поисках сокровищ. (2015)_DVB by SLuMeP.ts
General #1
ID : 1 (0x1)
Complete name : G:\Барби и щенки в поисках сокровищ. (2015)_DVB by SLuMeP.ts
Format : MPEG-TS
File size : 1.32 GiB
Duration : 1h 12mn
Overall bit rate mode : Variable
Overall bit rate : 2 620 Kbps
Video #401
ID : 401 (0x191)
Menu ID : 1 (0x1)
Format : AVC
Format/Info : Advanced Video Codec
Format profile : Main@L3.0
Format settings, CABAC : Yes
Format settings, ReFrames : 3 frames
Codec ID : 27
Duration : 1h 12mn
Bit rate : 2 296 Kbps
Width : 720 pixels
Height : 576 pixels
Display aspect ratio : 4:3
Frame rate : 25.000 fps
Standard : Component
Color space : YUV
Chroma subsampling : 4:2:0
Bit depth : 8 bits
Scan type : Interlaced
Scan order : Top Field First
Bits/(Pixel*Frame) : 0.221
Stream size : 1.16 GiB (88%)
Color primaries : BT.601 PAL
Transfer characteristics : BT.470 System B, BT.470 System G
Matrix coefficients : BT.601
Audio #402
ID : 402 (0x192)
Menu ID : 1 (0x1)
Format : MPEG Audio
Format version : Version 1
Format profile : Layer 2
Codec ID : 3
Duration : 1h 12mn
Bit rate mode : Constant
Bit rate : 192 Kbps
Channel(s) : 2 channels
Sampling rate : 48.0 KHz
Compression mode : Lossy
Stream size : 98.9 MiB (7%)
Language : English
Text #403-758
ID : 403 (0x193)-758
Menu ID : 1 (0x1)
Format : Teletext Subtitle
Language : Russian
Menu #256
ID : 256 (0x100)
Menu ID : 1 (0x1)
Duration : 1h 12mn
List : 401 (0x191) (AVC) / 402 (0x192) (MPEG Audio, English) / 403 (0x193) ()
Language : / English
Показать сообщения:    

Текущее время: 20-Сен 13:56

Часовой пояс: UTC - 1


Вы не можете начинать темы
Вы не можете отвечать на сообщения
Вы не можете редактировать свои сообщения
Вы не можете удалять свои сообщения
Вы не можете голосовать в опросах
Вы не можете прикреплять файлы к сообщениям
Вы не можете скачивать файлы

!ВНИМАНИЕ!
Сайт не предоставляет электронные версии произведений, а занимается лишь коллекционированием и каталогизацией ссылок, присылаемых и публикуемых на форуме нашими читателями. Если вы являетесь правообладателем какого-либо представленного материала и не желаете, чтобы ссылка на него находилась в нашем каталоге, свяжитесь с нами, и мы незамедлительно удалим ее. Файлы для обмена на трекере предоставлены пользователями сайта, и администрация не несет ответственности за их содержание. Просьба не заливать файлы, защищенные авторскими правами, а также файлы нелегального содержания!