Ивановский Торрент трекер
Яндекс.Погода
 

[Цитировать]
HUNTER

| Все релизы мультфильма || BDRip-AVC, 2.53 GB |- P R E S E N T SБарби и потайная дверь / Barbie and the Secret Door- Страна: США
Жанр: мультфильм, фэнтези, приключения
Продолжительность: 01:20:52
Год выпуска: 2014
Перевод: Профессиональный (полное дублирование)
Субтитры: английские (полные и для слабослышащих)-Режиссёр: Карен Джи Ллойд / Karen J Lloyd
Роли озвучивали: Келли Шеридан, Бриттани МакДональд, Ашлей Болл, Чанелли Пелосо, Табита Сен-Жермен, Элли Кинг, Кристофер Газ, Джонатан Холмс, Бритт Ирвин, Маккензи Грей, Андреа Либман, Анна Галвин...- -Описание: В этом мультфильме Барби предстанет в образе принцессы Алексы, которой больше нравится читать книги, чем выполнять королевские обязанности и ритуалы. Однажды Алекса находит потайную дверь в своем королевском саду, эта дверь оказывается копией той, про которую читала принцесса. Принцесса Алекса открывает дверь и попадает в волшебный мир, наполненный сказочными созданиями. В этом мире принцесса встречает Роми и Нори - русалку и принцессу, которые рассказывают ей об испорченной юной правительнице этого мира, старающейся похитить и забрать всю магию...-Доп. информация: BDRip-AVC 648p сделан с Blu-Ray диска Barbie and The Secret Door 2014 BluRay 1080p AVC DTS-HD MA5.1-CHDBits.-Сэмпл/Sample (40.29 MB, 1 минута)-Качество: BDRip-AVC
Формат: MKV
Видео: 1152x648 (1.778:1), 23,976 fps, ~3580 kbps avg, 0.205 bit/pixel
Аудио #1: Русский, AC3, 6 ch, 48 kHz, 448 kbps - Полное дублирование
Аудио #2: English, AC3, 6 ch, 48 kHz, 448 kbps - Original
Субтитры: Русские (форсированные), English (Full, SDH)
Навигация по главам: есть (12 не именованных глав)

MediaInfo / x264Log

x264Log
raw [info]: 1152x648p 1:1 @ 24000/1001 fps (cfr)x264 [info]: using SAR=1/1x264 [info]: using cpu capabilities: MMX2 SSE2Fast SSSE3 SSE4.2 AVX XOP FMA4 FMA3 LZCNT BMI1x264 [info]: profile High, level 4.1x264 [info]: frame I:927 Avg QP:15.90 size:109491 PSNR Mean Y:48.36 U:50.09 V:49.98 Avg:48.61 Global:47.99x264 [info]: frame P:33143 Avg QP:17.11 size: 35450 PSNR Mean Y:47.60 U:51.19 V:51.12 Avg:47.91 Global:47.02x264 [info]: frame B:82257 Avg QP:20.55 size: 10879 PSNR Mean Y:47.05 U:49.17 V:49.08 Avg:47.27 Global:46.25x264 [info]: consecutive B-frames: 4.4% 7.9% 11.5% 51.8% 8.3% 12.1% 1.3% 1.3% 0.2% 0.2% 0.1% 0.1% 0.1% 0.2% 0.5%x264 [info]: mb I I16..4: 4.8% 75.4% 19.8%x264 [info]: mb P I16..4: 1.2% 15.5% 2.2% P16..4: 27.3% 29.5% 11.5% 1.8% 0.2% skip:10.7%x264 [info]: mb B I16..4: 0.3% 2.3% 0.2% B16..8: 28.6% 17.6% 3.2% direct: 5.1% skip:42.7% L0:35.6% L1:43.5% BI:21.0%x264 [info]: 8x8 transform intra:81.1% inter:68.4%x264 [info]: coded y,uvDC,uvAC intra: 82.6% 92.4% 81.0% inter: 18.1% 23.5% 13.0%x264 [info]: i16 v,h,dc,p: 15% 12% 3% 70%x264 [info]: i8 v,h,dc,ddl,ddr,vr,hd,vl,hu: 16% 15% 7% 7% 9% 10% 11% 11% 13%x264 [info]: i4 v,h,dc,ddl,ddr,vr,hd,vl,hu: 16% 12% 7% 7% 15% 13% 12% 8% 9%x264 [info]: i8c dc,h,v,p: 33% 25% 19% 22%x264 [info]: Weighted P-Frames: Y:2.3% UV:1.7%x264 [info]: ref P L0: 56.3% 14.8% 13.1% 4.7% 3.0% 2.4% 1.7% 1.1% 0.9% 0.9% 0.8% 0.1% 0.0%x264 [info]: ref B L0: 85.2% 7.6% 3.2% 1.3% 0.9% 0.6% 0.5% 0.3% 0.2% 0.1%x264 [info]: ref B L1: 94.6% 5.4%x264 [info]: SSIM Mean Y:0.9911504 (20.531db)x264 [info]: PSNR Mean Y:47.216 U:49.756 V:49.665 Avg:47.461 Global:46.467 kb/s:3580.10encoded 116327 frames, 7.95 fps, 3580.10 kb/s
GeneralUnique ID : 235862023323596954901601377911325196702 (0xB1715F939EF96DF6B950F52D3B82019E)Complete name : Barbie.and.the.Secret.Door.2014.BDRip-AVC.648p.dfcbit.mkvFormat : MatroskaFormat version : Version 2File size : 2.53 GiBDuration : 1h 20mnOverall bit rate : 4 478 KbpsEncoded date : UTC 2014-08-31 10:37:40Writing application : mkvmerge v4.0.0 ('The Stars were mine') built on Jun 6 2010 16:18:42Writing library : libebml v1.0.0 + libmatroska v1.0.0
VideoID : 1Format : AVCFormat/Info : Advanced Video CodecFormat profile : High@L4.1Format settings, CABAC : YesFormat settings, ReFrames : 11 framesCodec ID : V_MPEG4/ISO/AVCDuration : 1h 20mnBit rate : 3 580 KbpsWidth : 1 152 pixelsHeight : 648 pixelsDisplay aspect ratio : 16:9Frame rate mode : ConstantFrame rate : 23.976 fpsColor space : YUVChroma subsampling : 4:2:0Bit depth : 8 bitsScan type : ProgressiveBits/(Pixel*Frame) : 0.205Stream size : 2.02 GiB (78%)Title : NTSC, 1152x648 (1.778:1), BDRip-AVC 648p - tRuAVC & Multfilmy [DFCbit]Writing library : x264 core 142 r2453kMod ea0ca51Encoding settings : cabac=1 / ref=11 / deblock=1:-2:-1 / analyse=0x3:0x133 / me=umh / subme=11 / psy=1 / fade_compensate=0.00 / psy_rd=0.63:0.00 / mixed_ref=1 / me_range=32 / chroma_me=1 / trellis=2 / 8x8dct=1 / cqm=0 / deadzone=21,11 / fast_pskip=0 / chroma_qp_offset=-2 / threads=12 / lookahead_threads=3 / sliced_threads=0 / nr=0 / decimate=1 / interlaced=0 / bluray_compat=0 / constrained_intra=0 / fgo=0 / bframes=14 / b_pyramid=2 / b_adapt=2 / b_bias=0 / direct=1 / weightb=1 / open_gop=0 / weightp=2 / keyint=250 / keyint_min=23 / scenecut=40 / intra_refresh=0 / rc_lookahead=70 / rc=crf / mbtree=0 / crf=17.5599 / qcomp=0.81 / qpmin=0 / qpmax=69 / qpstep=4 / vbv_maxrate=25000 / vbv_bufsize=50000 / crf_max=0.0 / nal_hrd=none / filler=0 / ip_ratio=1.40 / pb_ratio=1.30 / aq=3:0.90Language : EnglishDefault : YesForced : NoColor primaries : BT.709Transfer characteristics : BT.709Matrix coefficients : BT.709
Audio #1ID : 2Format : AC-3Format/Info : Audio Coding 3Mode extension : CM (complete main)Format settings, Endianness : BigCodec ID : A_AC3Duration : 1h 20mnBit rate mode : ConstantBit rate : 448 KbpsChannel(s) : 6 channelsChannel positions : Front: L C R, Side: L R, LFESampling rate : 48.0 KHzBit depth : 16 bitsCompression mode : LossyStream size : 259 MiB (10%)Title : AC3, 6 ch, 48 kHz, 448 kbps - Полное дублированиеLanguage : RussianDefault : YesForced : No
Audio #2ID : 3Format : AC-3Format/Info : Audio Coding 3Mode extension : CM (complete main)Format settings, Endianness : BigCodec ID : A_AC3Duration : 1h 20mnBit rate mode : ConstantBit rate : 448 KbpsChannel(s) : 6 channelsChannel positions : Front: L C R, Side: L R, LFESampling rate : 48.0 KHzBit depth : 16 bitsCompression mode : LossyStream size : 259 MiB (10%)Title : AC3, 6 ch, 48 kHz, 448 kbps - OriginalLanguage : EnglishDefault : NoForced : No
Text #1ID : 4Format : UTF-8Codec ID : S_TEXT/UTF8Codec ID/Info : UTF-8 Plain TextTitle : SRT, ФорсированныеLanguage : RussianDefault : NoForced : No
Text #2ID : 5Format : UTF-8Codec ID : S_TEXT/UTF8Codec ID/Info : UTF-8 Plain TextTitle : SRT, FullLanguage : EnglishDefault : NoForced : No
Text #3ID : 6Format : UTF-8Codec ID : S_TEXT/UTF8Codec ID/Info : UTF-8 Plain TextTitle : SRT, (SDH)Language : EnglishDefault : NoForced : No
Menu00:00:00.000 : en:Chapter 100:05:19.569 : en:Chapter 200:10:43.643 : en:Chapter 300:16:01.544 : en:Chapter 400:21:38.130 : en:Chapter 500:28:24.369 : en:Chapter 600:31:49.491 : en:Chapter 700:35:10.608 : en:Chapter 800:42:33.509 : en:Chapter 900:52:11.128 : en:Chapter 1001:04:01.129 : en:Chapter 1101:13:05.881 : en:Chapter 12

Скриншоты

Скриншот с названием мультфильма
--BDRip-AVC


Source Blu-Ray

Релиз от групп | and | -Данный релиз не будет воспроизводиться на бытовых плеерах не поддерживающих MKV и H.264 Обсуждение релизов в AVC формате || Свежие AVC рипы
Показать сообщения:    

Текущее время: 22-Сен 07:18

Часовой пояс: UTC - 1


Вы не можете начинать темы
Вы не можете отвечать на сообщения
Вы не можете редактировать свои сообщения
Вы не можете удалять свои сообщения
Вы не можете голосовать в опросах
Вы не можете прикреплять файлы к сообщениям
Вы не можете скачивать файлы

!ВНИМАНИЕ!
Сайт не предоставляет электронные версии произведений, а занимается лишь коллекционированием и каталогизацией ссылок, присылаемых и публикуемых на форуме нашими читателями. Если вы являетесь правообладателем какого-либо представленного материала и не желаете, чтобы ссылка на него находилась в нашем каталоге, свяжитесь с нами, и мы незамедлительно удалим ее. Файлы для обмена на трекере предоставлены пользователями сайта, и администрация не несет ответственности за их содержание. Просьба не заливать файлы, защищенные авторскими правами, а также файлы нелегального содержания!