Ивановский Торрент трекер
Яндекс.Погода
 

[Цитировать]
HUNTER

Барби и космическое приключение / Barbie: Star Light Adventure- Страна: США
Жанр: Мультфильм, семейный
Продолжительность: 01:19:28
Год выпуска: 2016
Перевод: Профессиональный (дублированный)
Русские субтитры: нет-Режиссёр: Майкл Гогуэн-Роли озвучивали: Эрика Линдбек, Робби Дэймонд, Кимберли Вудс, Сара Энн Уильямс, Майкл Чендлер, Дуайт Шульц, Бен Бледсо, Джонатан Липов, Люсьен Додж, Лаура Пост, Джелани Имани, Кэтрин Рассел, Тристан Сэмюэл-Описание: Увлекательный мультфильм о невероятных приключениях Барби в далеком будущем. Красавица живет на сказочной планете с отцом – космическим летчиком и весело проводит время с питомцем – пушистым котом по кличке Попкорн. Она ловко рассекает воздушные просторы на своем флайборде и мечтает о путешествиях в космосе. Однажды папа Барби получает тревожное сообщение: звезды в Галактике постепенно угасают, поэтому король планеты собирает команду, чтобы снова зажечь светила. Для участия в этом важном и опасном задании Совет короля выбрал Барби, потому что подданные уверены, что она – настоящий лидер и звездная принцесса. Теперь отважной девушке предстоит исполнить миссию: исследовать новый мир и достичь центра Галактики, чтобы спасти звезды. На помощь ей придут новые друзья-космонавты и невиданные фантастические создания.- -Качество: HDRip
Формат: AVI
Видео: 720х400 (16:9), 23.976 fps, XviD, 1881 Kbps, 0.27 bit/pixel
Аудио 1: 48.0 kHz, AC3 Dolby Digital, 3/2 (L,C,R,l,r) + LFE ch, 384 Kbps [Russ]
Аудио 2: 48 kHz, AC3 Dolby Digital, 2 ch, 192 Kbps [Eng]
Субтитры: отсутствуют-- -
-

Подробные технические данные

General Complete name : \Downloads\Barbi.i.kosmi4eskoe.priklu4enie.2O16.D.HDRip.avi Format : AVI Format/Info : Audio Video Interleave File size : 1.37 GiB Duration : 1h 19mn Overall bit rate : 2 471 Kbps Writing application : VirtualDubMod 1.5.10.2 (build 2540/release) Writing library : VirtualDubMod build 2540/release Video #0 ID : 0 Format : MPEG-4 Visual Format profile : Advanced Simple@L5 Format settings, BVOP : 2 Format settings, QPel : No Format settings, GMC : No warppoints Format settings, Matrix : Default (MPEG) Codec ID : XVID Codec ID/Hint : XviD Duration : 1h 19mn Bit rate : 1 881 Kbps Width : 720 pixels Height : 400 pixels Display aspect ratio : 16:9 Frame rate : 23.976 fps Color space : YUV Chroma subsampling : 4:2:0 Bit depth : 8 bits Scan type : Progressive Compression mode : Lossy Bits/(Pixel*Frame) : 0.272 Stream size : 1.04 GiB (76%) Writing library : XviD 1.2.1 (UTC 2008-12-04) Audio #1 ID : 1 Format : AC-3 Format/Info : Audio Coding 3 Mode extension : CM (complete main) Format settings, Endianness : Big Codec ID : 2000 Duration : 1h 19mn Bit rate mode : Constant Bit rate : 384 Kbps Channel(s) : 6 channels Channel positions : Front: L C R, Side: L R, LFE Sampling rate : 48.0 KHz Bit depth : 16 bits Compression mode : Lossy Stream size : 218 MiB (16%) Alignment : Split accross interleaves Interleave, duration : 42 ms (1.00 video frame) Interleave, preload duration : 500 ms Audio #2 ID : 2 Format : AC-3 Format/Info : Audio Coding 3 Mode extension : CM (complete main) Format settings, Endianness : Big Codec ID : 2000 Duration : 1h 19mn Bit rate mode : Constant Bit rate : 192 Kbps Channel(s) : 2 channels Channel positions : Front: L R Sampling rate : 48.0 KHz Bit depth : 16 bits Compression mode : Lossy Stream size : 109 MiB (8%) Alignment : Split accross interleaves Interleave, duration : 42 ms (1.00 video frame) Interleave, preload duration : 500 ms

Скриншоты

Релиз без рекламы!


Показать сообщения:    

Текущее время: 16-Дек 05:27

Часовой пояс: UTC ± 0


Вы не можете начинать темы
Вы не можете отвечать на сообщения
Вы не можете редактировать свои сообщения
Вы не можете удалять свои сообщения
Вы не можете голосовать в опросах
Вы не можете прикреплять файлы к сообщениям
Вы не можете скачивать файлы

!ВНИМАНИЕ!
Сайт не предоставляет электронные версии произведений, а занимается лишь коллекционированием и каталогизацией ссылок, присылаемых и публикуемых на форуме нашими читателями. Если вы являетесь правообладателем какого-либо представленного материала и не желаете, чтобы ссылка на него находилась в нашем каталоге, свяжитесь с нами, и мы незамедлительно удалим ее. Файлы для обмена на трекере предоставлены пользователями сайта, и администрация не несет ответственности за их содержание. Просьба не заливать файлы, защищенные авторскими правами, а также файлы нелегального содержания!