Важное объявление!
У Нас Все раздачи мультитрекерные, при нуле пиров в релизах, можете смело вставать на закачку!
 
Автор Сообщение

HUNTER

Стаж:
4 года 7 месяцев
Сообщений:
61554

Репутация: 101

[+] [-]
Вне форума [Профиль] [ЛС]

Барби и команда шпионов
Barbie: Spy Squad
-
Год выпуска: 2016
Страна: США
Жанр: мультфильм, приключения, семейный
Продолжительность: 01:15:25
Перевод: Профессиональный (Дублированный)
русские субтитры: нет-Режиссёр: Конрад Хелтен : Conrad Helten-Роли озвучивали: Джонатан Холмс, Стефани Шех, Дженни Пеллисер, Бриттни Ирвин, Брайан Добсон, Ребекка Хусейн, Кэти Уэслак, Ian Hanlin, Erica Lindbeck, Alyssya Swales-Описание
Барби и ее подруги становятся тайными агентами!
Барби, Тереза и Рене — грациозные гимнастки, которые все свое время посвящают сложным тренировкам и зрелищным выступлениям. Когда их выдающиеся гимнастические навыки замечает глава шпионского агентства, девушек привлекают к секретной операции по поимке ловкой воровки.
Благодаря отличной физической подготовке, командному духу, суперкостюмам и помощи роботов-питомцев, Барби и подружки смогут выполнить свою секретную миссию с блеском.
- релиз: -Качество: BDRip-AVC [url=viewtopic.php?t=5184697]BDRemux 1080p[/url] -Azureus-
Формат: MKV
Видео кодек: AVC
Аудио кодек: AC3
Видео: AVC 2857 Kbps 1152 x 648 (1.778) 23.976 fps
Аудио #1: [RUS] 48 kHz, AC3 Dolby Digital, 2/0 (L,R) ch, ~192 kbps
Аудио #2: [ENG] AC-3 448 Kbps 6 channels, 48.0 KHz
субтитры: английские
навигация по главам: 12 глав (не именные)

MI | Log

Log
x264 [info]: frame I:1025 Avg QP:13.34 size: 93122
x264 [info]: frame P:31617 Avg QP:15.04 size: 28697
x264 [info]: frame B:75862 Avg QP:18.49 size: 8602
x264 [info]: consecutive B-frames: 4.7% 5.3% 30.4% 27.8% 15.1% 14.3% 1.1% 0.3% 0.2% 0.1% 0.1% 0.1% 0.1% 0.2% 0.3%
x264 [info]: mb I I16..4: 9.5% 70.6% 19.9%
x264 [info]: mb P I16..4: 2.0% 13.2% 2.1% P16..4: 26.9% 31.0% 10.4% 1.8% 0.2% skip:12.4%
x264 [info]: mb B I16..4: 0.3% 1.7% 0.2% B16..8: 28.7% 17.1% 2.8% direct: 4.0% skip:45.2% L0:38.1% L1:46.5% BI:15.4%
x264 [info]: 8x8 transform intra:75.6% inter:60.2%
x264 [info]: direct mvs spatial:100.0% temporal:0.0%
x264 [info]: coded y,uvDC,uvAC intra: 79.8% 89.0% 77.1% inter: 14.3% 19.0% 9.3%
x264 [info]: i16 v,h,dc,p: 15% 12% 3% 71%
x264 [info]: i8 v,h,dc,ddl,ddr,vr,hd,vl,hu: 14% 12% 8% 8% 10% 11% 11% 12% 13%
x264 [info]: i4 v,h,dc,ddl,ddr,vr,hd,vl,hu: 13% 12% 10% 8% 14% 13% 12% 9% 10%
x264 [info]: i8c dc,h,v,p: 34% 26% 21% 19%
x264 [info]: Weighted P-Frames: Y:2.2% UV:1.3%
x264 [info]: ref P L0: 54.5% 7.5% 17.5% 5.6% 4.1% 3.0% 2.5% 1.4% 1.2% 1.1% 1.1% 0.6% 0.0%
x264 [info]: ref B L0: 77.6% 11.2% 4.5% 2.1% 1.4% 1.1% 0.9% 0.5% 0.4% 0.2%
x264 [info]: ref B L1: 93.0% 7.0%
x264 [info]: kb/s:2926.16
x264 [total]: encoded 108504 frames, 7.17 fps, 2926.16 kb/s, duration 4:12:08.27
Format : Matroska
Format version : Version 4 / Version 2
File size : 1.88 GiB
Duration : 1h 15mn
Overall bit rate : 3 568 Kbps
Encoded date : UTC 2016-03-10 11:41:52
Writing application : mkvmerge v6.7.0 ('Back to the Ground') 32bit built on Jan 8 2014 15:03:17
Writing library : libebml v1.3.0 + libmatroska v1.4.1
Video
ID : 1
Format : AVC
Format/Info : Advanced Video Codec
Format profile : High@L4.1
Format settings, CABAC : Yes
Format settings, ReFrames : 11 frames
Codec ID : V_MPEG4/ISO/AVC
Duration : 1h 15mn
Bit rate : 2 857 Kbps
Width : 1 152 pixels
Height : 648 pixels
Display aspect ratio : 16:9
Frame rate mode : Constant
Frame rate : 23.976 (24000/1001) fps
Color space : YUV
Chroma subsampling : 4:2:0
Bit depth : 8 bits
Scan type : Progressive
Bits/(Pixel*Frame) : 0.160
Stream size : 1.51 GiB (80%)
Title : Barbie: Spy Squad (2016) [rutracker.org]
Writing library : x264 core 148 r2638kMod 7599210
Encoding settings : cabac=1 / ref=11 / deblock=1:-2:-2 / analyse=0x3:0x133 / me=umh / subme=11 / psy=1 / fade_compensate=0.00 / psy_rd=1.00:0.05 / mixed_ref=1 / me_range=48 / chroma_me=1 / trellis=2 / 8x8dct=1 / cqm=0 / deadzone=21,11 / fast_pskip=0 / chroma_qp_offset=-3 / threads=12 / lookahead_threads=3 / sliced_threads=0 / nr=0 / decimate=1 / interlaced=0 / bluray_compat=0 / constrained_intra=0 / fgo=0 / bframes=14 / b_pyramid=2 / b_adapt=2 / b_bias=0 / direct=3 / weightb=1 / open_gop=0 / weightp=2 / keyint=250 / keyint_min=23 / scenecut=40 / intra_refresh=0 / rc_lookahead=60 / rc=crf / mbtree=0 / crf=17.2000 / qcomp=0.60 / qpmin=0 / qpmax=69 / qpstep=4 / vbv_maxrate=50000 / vbv_bufsize=62500 / crf_max=0.0 / nal_hrd=none / filler=0 / ip_ratio=1.40 / pb_ratio=1.30 / aq=3:0.90
Language : English
Default : Yes
Forced : No
Audio #1
ID : 2
Format : AC-3
Format/Info : Audio Coding 3
Mode extension : CM (complete main)
Format settings, Endianness : Big
Codec ID : A_AC3
Duration : 1h 15mn
Bit rate mode : Constant
Bit rate : 192 Kbps
Channel(s) : 2 channels
Channel positions : Front: L R
Sampling rate : 48.0 KHz
Frame rate : 31.250 fps (1536 spf)
Compression mode : Lossy
Stream size : 104 MiB (5%)
Title : DUB
Language : Russian
Default : Yes
Forced : No
Audio #2
ID : 3
Format : AC-3
Format/Info : Audio Coding 3
Mode extension : CM (complete main)
Format settings, Endianness : Big
Codec ID : A_AC3
Duration : 1h 15mn
Bit rate mode : Constant
Bit rate : 448 Kbps
Channel(s) : 6 channels
Channel positions : Front: L C R, Side: L R, LFE
Sampling rate : 48.0 KHz
Frame rate : 31.250 fps (1536 spf)
Compression mode : Lossy
Stream size : 242 MiB (13%)
Title : Original
Language : English
Default : No
Forced : No
Text
ID : 4
Format : UTF-8
Codec ID : S_TEXT/UTF8
Codec ID/Info : UTF-8 Plain Text
Title : SDH
Language : English
Default : No
Forced : No
Menu
00:00:00.000 : en:00:00:00.000
00:05:28.954 : en:00:05:28.954
00:12:05.141 : en:00:12:05.141
00:17:47.441 : en:00:17:47.441
00:25:46.170 : en:00:25:46.170
00:32:10.220 : en:00:32:10.220
00:39:11.057 : en:00:39:11.057
00:44:17.488 : en:00:44:17.488
00:49:30.968 : en:00:49:30.968
00:57:03.462 : en:00:57:03.462
01:02:27.535 : en:01:02:27.535
01:09:49.060 : en:01:09:49.060

Скриншоты




_________________
Показать сообщения:    

Текущее время: Сегодня 09:47

Часовой пояс: GMT



Вы не можете начинать темы
Вы не можете отвечать на сообщения
Вы не можете редактировать свои сообщения
Вы не можете удалять свои сообщения
Вы не можете голосовать в опросах
Вы не можете прикреплять файлы к сообщениям
Вы не можете скачивать файлы
Наши партнеры: интернет магазин Ивановского трикотажа textilla.ru