Ивановский Торрент трекер
Яндекс.Погода
 

[Цитировать]
HUNTER

| Все релизы мультфильма || BDRip-AVC, 1.46 GB |- P R E S E N T SБарби и ее сестры в Сказке о пони / Barbie & Her Sisters in A Pony Tale- Страна: США
Жанр: мультфильм, фэнтези, приключения
Продолжительность: 01:14:12
Год выпуска: 2013
Перевод: Профессиональный (полное дублирование)
Субтитры: английские (полные и для слабослышащих)-Режиссёр: Кайран Келли / Kyran Kelly
Роли озвучивали: Келли Шеридан, Клер Корлетт, Эшлин Драммонд, Алекс Келли, Табита Сен-Жермен, Шеннон Чан-Кент, Колин Мёрдок, Питер Келамис, Максин Миллер, Коул Ховард, Гейб Хаут, Тео Белл...-| |-Описание: Барби и её сестры отправляются в сказочные Швейцарские Альпы, чтобы провести незабываемые летние каникулы в школе верховой езды! Барби с нетерпением ждет встречи с новой лошадкой, которую намеревается забрать с собой в Малибу. Стэйси очень хочется доказать всем, что она великолепная наездница. Малышка Челси мечтает покататься на «настоящих больших лошадках», а Скиппер больше любит красочно описывать приключения, чем участвовать в них. Каникулы идут своим чередом, пока Барби не находит в лесу необычную дикую лошадь - и каникулы сестер становятся по-настоящему волшебными!...-Доп. информация: BDRip-AVC сделан с BDRemux'а Barbie & Her Sisters in A Pony Tale (2013) 1080p BD-Remux -HDCLUB.-Сэмпл/Sample (16.2 MB, 1 минута)-Качество: BDRip-AVC
Формат: MKV
Видео: 1024x576 (1.778:1), 23,976 fps, ~1981 kbps avg, 0.140 bit/pixel
Аудио #1: Русский, AC3, 6 ch, 48 kHz, 384 kbps - Дубляж
Аудио #3: English, AC3, 6 ch, 48 kHz, 448 kbps - Original
Субтитры: English (Full, SDH)
Навигация по главам: есть (12 именованных глав)

MediaInfo / x264Log

x264Log

raw [info]: 1024x576p 1:1 @ 24000/1001 fps (cfr)x264 [info]: using SAR=1/1x264 [info]: using cpu capabilities: MMX2 SSE2Fast SSSE3 SSE4.2 AVX XOP FMA4 FMA3 LZCNT BMI1x264 [info]: profile High, level 4.1x264 [info]: frame I:1002 Avg QP:14.59 size: 98287 PSNR Mean Y:48.66 U:50.48 V:50.58 Avg:49.18 Global:48.63x264 [info]: frame P:29517 Avg QP:17.41 size: 19520 PSNR Mean Y:46.92 U:48.98 V:49.17 Avg:47.50 Global:46.82x264 [info]: frame B:76214 Avg QP:20.22 size: 5611 PSNR Mean Y:46.87 U:49.22 V:49.25 Avg:47.50 Global:46.63x264 [info]: consecutive B-frames: 4.2% 7.3% 7.3% 58.0% 6.5% 9.8% 1.9% 3.3% 0.2% 0.3% 0.1% 0.1% 0.0% 0.2% 0.5%x264 [info]: mb I I16..4: 3.1% 73.3% 23.6%x264 [info]: mb P I16..4: 0.7% 9.9% 1.8% P16..4: 20.9% 21.8% 11.4% 2.6% 0.3% skip:30.7%x264 [info]: mb B I16..4: 0.1% 1.5% 0.2% B16..8: 21.1% 13.3% 2.6% direct: 2.7% skip:58.5% L0:36.8% L1:45.2% BI:18.0%x264 [info]: 8x8 transform intra:79.4% inter:55.1%x264 [info]: coded y,uvDC,uvAC intra: 86.0% 81.9% 62.2% inter: 13.0% 8.8% 3.4%x264 [info]: i16 v,h,dc,p: 34% 14% 6% 46%x264 [info]: i8 v,h,dc,ddl,ddr,vr,hd,vl,hu: 15% 12% 8% 8% 10% 12% 10% 12% 13%x264 [info]: i4 v,h,dc,ddl,ddr,vr,hd,vl,hu: 14% 11% 8% 8% 16% 14% 12% 9% 10%x264 [info]: i8c dc,h,v,p: 36% 27% 20% 16%x264 [info]: Weighted P-Frames: Y:1.7% UV:1.2%x264 [info]: ref P L0: 58.7% 10.1% 12.5% 5.7% 3.9% 2.9% 2.2% 1.3% 1.0% 0.8% 0.6% 0.1% 0.0%x264 [info]: ref B L0: 80.6% 9.9% 4.2% 1.9% 1.2% 0.9% 0.6% 0.4% 0.2% 0.1%x264 [info]: ref B L1: 94.5% 5.5%x264 [info]: SSIM Mean Y:0.9906421 (20.288db)x264 [info]: PSNR Mean Y:46.899 U:49.168 V:49.241 Avg:47.515 Global:46.701 kb/s:1980.94encoded 106733 frames, 13.79 fps, 1980.94 kb/s
GeneralUnique ID : 222109852960862591522727394145232208984 (0xA718CD3AA4B539DE962B5E88698BC458)Complete name : Barbie.and.Her.Sisters.in.A.Pony.Tale.2013.BDRip-AVC.576p.dfcbit.mkvFormat : MatroskaFormat version : Version 2File size : 1.46 GiBDuration : 1h 14mnOverall bit rate : 2 815 KbpsEncoded date : UTC 2014-02-27 07:14:17Writing application : mkvmerge v4.0.0 ('The Stars were mine') built on Jun 6 2010 16:18:42Writing library : libebml v1.0.0 + libmatroska v1.0.0
VideoID : 1Format : AVCFormat/Info : Advanced Video CodecFormat profile : High@L4.1Format settings, CABAC : YesFormat settings, ReFrames : 11 framesCodec ID : V_MPEG4/ISO/AVCDuration : 1h 14mnBit rate : 1 981 KbpsWidth : 1 024 pixelsHeight : 576 pixelsDisplay aspect ratio : 16:9Frame rate mode : ConstantFrame rate : 23.976 fpsColor space : YUVChroma subsampling : 4:2:0Bit depth : 8 bitsScan type : ProgressiveBits/(Pixel*Frame) : 0.140Stream size : 1.03 GiB (68%)Title : NTSC, 1024x576 (1.778:1), BDRip-AVC 576p - tRuAVC & Multfilmy [DFCbit]Writing library : x264 core 142 r2389kMod 956c8d8Encoding settings : cabac=1 / ref=11 / deblock=1:-2:-1 / analyse=0x3:0x133 / me=umh / subme=11 / psy=1 / fade_compensate=0.00 / psy_rd=0.63:0.00 / mixed_ref=1 / me_range=32 / chroma_me=1 / trellis=2 / 8x8dct=1 / cqm=0 / deadzone=21,11 / fast_pskip=0 / chroma_qp_offset=-2 / threads=12 / lookahead_threads=3 / sliced_threads=0 / nr=0 / decimate=1 / interlaced=0 / bluray_compat=0 / constrained_intra=0 / fgo=0 / bframes=14 / b_pyramid=2 / b_adapt=2 / b_bias=0 / direct=1 / weightb=1 / open_gop=0 / weightp=2 / keyint=250 / keyint_min=23 / scenecut=40 / intra_refresh=0 / rc_lookahead=70 / rc=2pass / mbtree=0 / bitrate=1981 / ratetol=1.0 / qcomp=0.81 / qpmin=0 / qpmax=69 / qpstep=4 / cplxblur=20.0 / qblur=0.5 / vbv_maxrate=25000 / vbv_bufsize=50000 / nal_hrd=none / filler=0 / ip_ratio=1.40 / pb_ratio=1.30 / aq=3:0.90Language : EnglishDefault : YesForced : NoColor primaries : BT.709Transfer characteristics : BT.709Matrix coefficients : BT.709
Audio #1ID : 2Format : AC-3Format/Info : Audio Coding 3Mode extension : CM (complete main)Format settings, Endianness : BigCodec ID : A_AC3Duration : 1h 14mnBit rate mode : ConstantBit rate : 384 KbpsChannel(s) : 6 channelsChannel positions : Front: L C R, Side: L R, LFESampling rate : 48.0 KHzBit depth : 16 bitsCompression mode : LossyStream size : 204 MiB (14%)Title : AC3, 6 ch, 48 kHz, 384 kbps - ДубляжLanguage : RussianDefault : YesForced : No
Audio #2ID : 3Format : AC-3Format/Info : Audio Coding 3Mode extension : CM (complete main)Format settings, Endianness : BigCodec ID : A_AC3Duration : 1h 14mnBit rate mode : ConstantBit rate : 448 KbpsChannel(s) : 6 channelsChannel positions : Front: L C R, Side: L R, LFESampling rate : 48.0 KHzBit depth : 16 bitsCompression mode : LossyStream size : 238 MiB (16%)Title : AC3, 6 ch, 48 kHz, 448 kbps - OriginalLanguage : EnglishDefault : NoForced : No
Text #1ID : 4Format : UTF-8Codec ID : S_TEXT/UTF8Codec ID/Info : UTF-8 Plain TextTitle : SRT, FullLanguage : EnglishDefault : NoForced : No
Text #2ID : 5Format : UTF-8Codec ID : S_TEXT/UTF8Codec ID/Info : UTF-8 Plain TextTitle : SRT, (SDH)Language : EnglishDefault : NoForced : No
Menu00:00:00.000 : en:1. Alpine Arrival00:05:46.554 : en:2. The Horses Pick You00:12:19.280 : en:3. Horsing Around00:17:18.162 : en:4. An Ancient Herd00:24:30.552 : en:5. Majesty00:34:46.209 : en:6. You're The One00:37:50.893 : en:7. Don't Give Up!00:41:52.551 : en:8. Cross-Country Trials00:50:35.198 : en:9. The Gala00:55:04.926 : en:10. The Search Is On!01:00:18.406 : en:11. The Steeplechase01:05:11.824 : en:12. Victory For Alpine

Скриншоты

Скриншот с названием мультфильма
--BDRip-AVC


Source BDRemux

Релиз от групп | and | -Данный релиз не будет воспроизводиться на бытовых плеерах не поддерживающих MKV и H.264 Обсуждение релизов в AVC формате || Свежие AVC рипы
Показать сообщения:    

Текущее время: 19-Окт 04:42

Часовой пояс: UTC - 1


Вы не можете начинать темы
Вы не можете отвечать на сообщения
Вы не можете редактировать свои сообщения
Вы не можете удалять свои сообщения
Вы не можете голосовать в опросах
Вы не можете прикреплять файлы к сообщениям
Вы не можете скачивать файлы

!ВНИМАНИЕ!
Сайт не предоставляет электронные версии произведений, а занимается лишь коллекционированием и каталогизацией ссылок, присылаемых и публикуемых на форуме нашими читателями. Если вы являетесь правообладателем какого-либо представленного материала и не желаете, чтобы ссылка на него находилась в нашем каталоге, свяжитесь с нами, и мы незамедлительно удалим ее. Файлы для обмена на трекере предоставлены пользователями сайта, и администрация не несет ответственности за их содержание. Просьба не заливать файлы, защищенные авторскими правами, а также файлы нелегального содержания!