Ивановский Торрент трекер
Яндекс.Погода
 

[Цитировать]
HUNTER

| Все релизы мультфильма || BDRip 1080p, 5.75 GB |- P R E S E N T SБарби и ее сестры в Сказке о пони / Barbie & Her Sisters in A Pony Tale- Страна: США
Жанр: мультфильм, фэнтези, приключения
Продолжительность: 01:14:12
Год выпуска: 2013
Перевод: Профессиональный (полное дублирование)
Субтитры: английские (полные и для слабослышащих)-Режиссёр: Кайран Келли / Kyran Kelly
Роли озвучивали: Келли Шеридан, Клер Корлетт, Эшлин Драммонд, Алекс Келли, Табита Сен-Жермен, Шеннон Чан-Кент, Колин Мёрдок, Питер Келамис, Максин Миллер, Коул Ховард, Гейб Хаут, Тео Белл...-| |-Описание: Барби и её сестры отправляются в сказочные Швейцарские Альпы, чтобы провести незабываемые летние каникулы в школе верховой езды! Барби с нетерпением ждет встречи с новой лошадкой, которую намеревается забрать с собой в Малибу. Стэйси очень хочется доказать всем, что она великолепная наездница. Малышка Челси мечтает покататься на «настоящих больших лошадках», а Скиппер больше любит красочно описывать приключения, чем участвовать в них. Каникулы идут своим чередом, пока Барби не находит в лесу необычную дикую лошадь - и каникулы сестер становятся по-настоящему волшебными!...-Доп. информация: BDRip 1080p сделан с BDRemux'а Barbie & Her Sisters in A Pony Tale (2013) 1080p BD-Remux -HDCLUB.-Сэмпл/Sample (65.7 MB, 1 минута)-Качество: BDRip 1080p
Формат: MKV
Видео: 1920x1080 (1.778:1), 23,976 fps, ~9195 kbps avg, 0.185 bit/pixel
Аудио #1: Русский, AC3, 6 ch, 48 kHz, 384 kbps - Дубляж
Аудио #3: English, DTS / 5.1 / 48 kHz / 1509 kbps / 24 bit - Original
Субтитры: English (Full, SDH)
Навигация по главам: есть (12 именованных глав)

MediaInfo / x264Log

x264Log

raw [info]: 1920x1080p 1:1 @ 24000/1001 fps (cfr)x264 [info]: using SAR=1/1x264 [info]: using cpu capabilities: MMX2 SSE2Fast SSSE3 SSE4.2 AVX XOP FMA4 FMA3 LZCNT BMI1x264 [info]: profile High, level 4.1x264 [info]: frame I:1007 Avg QP:11.80 size:319111 PSNR Mean Y:51.78 U:53.05 V:53.09 Avg:52.16 Global:51.69x264 [info]: frame P:32657 Avg QP:13.49 size: 83235 PSNR Mean Y:50.00 U:51.45 V:51.37 Avg:50.40 Global:49.81x264 [info]: frame B:73069 Avg QP:15.05 size: 28422 PSNR Mean Y:49.59 U:51.41 V:51.24 Avg:50.08 Global:49.40x264 [info]: consecutive B-frames: 4.4% 15.6% 4.3% 63.4% 3.7% 4.9% 1.2% 1.3% 0.1% 0.3% 0.1% 0.6%x264 [info]: mb I I16..4: 3.8% 84.5% 11.7%x264 [info]: mb P I16..4: 1.5% 20.1% 1.9% P16..4: 21.5% 19.5% 10.5% 2.2% 0.2% skip:22.6%x264 [info]: mb B I16..4: 0.4% 3.7% 0.2% B16..8: 27.4% 14.3% 2.5% direct: 5.6% skip:46.0% L0:36.6% L1:44.7% BI:18.8%x264 [info]: 8x8 transform intra:85.4% inter:48.7%x264 [info]: coded y,uvDC,uvAC intra: 84.9% 86.5% 73.1% inter: 19.9% 15.1% 6.0%x264 [info]: i16 v,h,dc,p: 35% 12% 9% 44%x264 [info]: i8 v,h,dc,ddl,ddr,vr,hd,vl,hu: 19% 15% 28% 5% 5% 6% 6% 8% 8%x264 [info]: i4 v,h,dc,ddl,ddr,vr,hd,vl,hu: 17% 12% 18% 6% 13% 11% 9% 6% 6%x264 [info]: i8c dc,h,v,p: 43% 25% 19% 13%x264 [info]: Weighted P-Frames: Y:1.3% UV:1.0%x264 [info]: ref P L0: 72.1% 9.4% 12.5% 5.7% 0.4% 0.0%x264 [info]: ref B L0: 90.9% 8.1% 1.0%x264 [info]: ref B L1: 95.3% 4.7%x264 [info]: SSIM Mean Y:0.9932540 (21.710db)x264 [info]: PSNR Mean Y:49.737 U:51.439 V:51.296 Avg:50.198 Global:49.537 kb/s:9194.50encoded 106733 frames, 5.18 fps, 9194.50 kb/s
GeneralUnique ID : 198054586249073252541473700976366592746 (0x94FFED0310DCDD6399B014AA2EEA22EA)Complete name : Barbie.and.Her.Sisters.in.A.Pony.Tale.2013.BDRip.1080p.dfcbit.mkvFormat : MatroskaFormat version : Version 2File size : 5.75 GiBDuration : 1h 14mnOverall bit rate : 11.1 MbpsEncoded date : UTC 2014-02-26 09:12:57Writing application : mkvmerge v4.0.0 ('The Stars were mine') built on Jun 6 2010 16:18:42Writing library : libebml v1.0.0 + libmatroska v1.0.0
VideoID : 1Format : AVCFormat/Info : Advanced Video CodecFormat profile : High@L4.1Format settings, CABAC : YesFormat settings, ReFrames : 4 framesCodec ID : V_MPEG4/ISO/AVCDuration : 1h 14mnBit rate : 9 195 KbpsWidth : 1 920 pixelsHeight : 1 080 pixelsDisplay aspect ratio : 16:9Frame rate mode : ConstantFrame rate : 23.976 fpsColor space : YUVChroma subsampling : 4:2:0Bit depth : 8 bitsScan type : ProgressiveBits/(Pixel*Frame) : 0.185Stream size : 4.76 GiB (81%)Title : NTSC, 1920x1080 (1.778:1), BDRip 1080p - tRuAVC & Multfilmy [DFCbit]Writing library : x264 core 142 r2389kMod 956c8d8Encoding settings : cabac=1 / ref=4 / deblock=1:-3:-2 / analyse=0x3:0x133 / me=umh / subme=11 / psy=1 / fade_compensate=0.00 / psy_rd=0.63:0.00 / mixed_ref=1 / me_range=32 / chroma_me=1 / trellis=2 / 8x8dct=1 / cqm=0 / deadzone=21,11 / fast_pskip=0 / chroma_qp_offset=-2 / threads=12 / lookahead_threads=3 / sliced_threads=0 / nr=0 / decimate=1 / interlaced=0 / bluray_compat=0 / constrained_intra=0 / fgo=0 / bframes=11 / b_pyramid=2 / b_adapt=2 / b_bias=0 / direct=1 / weightb=1 / open_gop=0 / weightp=2 / keyint=250 / keyint_min=23 / scenecut=40 / intra_refresh=0 / rc_lookahead=70 / rc=2pass / mbtree=0 / bitrate=9195 / ratetol=1.0 / qcomp=0.81 / qpmin=0 / qpmax=69 / qpstep=4 / cplxblur=20.0 / qblur=0.5 / vbv_maxrate=50000 / vbv_bufsize=62500 / nal_hrd=none / filler=0 / ip_ratio=1.40 / pb_ratio=1.30 / aq=3:0.90Language : EnglishDefault : YesForced : NoColor primaries : BT.709Transfer characteristics : BT.709Matrix coefficients : BT.709
Audio #1ID : 2Format : AC-3Format/Info : Audio Coding 3Mode extension : CM (complete main)Format settings, Endianness : BigCodec ID : A_AC3Duration : 1h 14mnBit rate mode : ConstantBit rate : 384 KbpsChannel(s) : 6 channelsChannel positions : Front: L C R, Side: L R, LFESampling rate : 48.0 KHzBit depth : 16 bitsCompression mode : LossyStream size : 204 MiB (3%)Title : AC3, 6 ch, 48 kHz, 384 kbps - ДубляжLanguage : RussianDefault : YesForced : No
Audio #2ID : 3Format : DTSFormat/Info : Digital Theater SystemsMode : 16Format settings, Endianness : BigCodec ID : A_DTSDuration : 1h 14mnBit rate mode : ConstantBit rate : 1 509 KbpsChannel(s) : 6 channelsChannel positions : Front: L C R, Side: L R, LFESampling rate : 48.0 KHzBit depth : 24 bitsCompression mode : LossyStream size : 801 MiB (14%)Title : DTS / 5.1 / 48 kHz / 1509 kbps / 24 bit - OriginalLanguage : EnglishDefault : NoForced : No
Text #1ID : 4Format : UTF-8Codec ID : S_TEXT/UTF8Codec ID/Info : UTF-8 Plain TextTitle : SRT, FullLanguage : EnglishDefault : NoForced : No
Text #2ID : 5Format : UTF-8Codec ID : S_TEXT/UTF8Codec ID/Info : UTF-8 Plain TextTitle : SRT, (SDH)Language : EnglishDefault : NoForced : No
Menu00:00:00.000 : en:1. Alpine Arrival00:05:46.554 : en:2. The Horses Pick You00:12:19.280 : en:3. Horsing Around00:17:18.162 : en:4. An Ancient Herd00:24:30.552 : en:5. Majesty00:34:46.209 : en:6. You're The One00:37:50.893 : en:7. Don't Give Up!00:41:52.551 : en:8. Cross-Country Trials00:50:35.198 : en:9. The Gala00:55:04.926 : en:10. The Search Is On!01:00:18.406 : en:11. The Steeplechase01:05:11.824 : en:12. Victory For Alpine

Скриншоты

Скриншот с названием мультфильма
--BDRip 1080p


Source BDRemux

Релиз от групп | and | -Данный релиз не будет воспроизводиться на бытовых плеерах не поддерживающих MKV и H.264 Обсуждение релизов в AVC формате || Свежие AVC рипы
Показать сообщения:    

Текущее время: 23-Сен 11:47

Часовой пояс: UTC - 1


Вы не можете начинать темы
Вы не можете отвечать на сообщения
Вы не можете редактировать свои сообщения
Вы не можете удалять свои сообщения
Вы не можете голосовать в опросах
Вы не можете прикреплять файлы к сообщениям
Вы не можете скачивать файлы

!ВНИМАНИЕ!
Сайт не предоставляет электронные версии произведений, а занимается лишь коллекционированием и каталогизацией ссылок, присылаемых и публикуемых на форуме нашими читателями. Если вы являетесь правообладателем какого-либо представленного материала и не желаете, чтобы ссылка на него находилась в нашем каталоге, свяжитесь с нами, и мы незамедлительно удалим ее. Файлы для обмена на трекере предоставлены пользователями сайта, и администрация не несет ответственности за их содержание. Просьба не заливать файлы, защищенные авторскими правами, а также файлы нелегального содержания!