Ивановский Торрент трекер
Яндекс.Погода
 

[Цитировать]
HUNTER

Барби: Жемчужная Принцесса / Barbie: The Pearl Princess- Страна: США
Жанр: мультфильм
Год выпуска: 2014
Продолжительность: 01:13:35
Перевод: Профессиональный (полное дублирование)
Субтитры: Нет-Режиссер: Терри Классен / Terry Klassen-Описание: Полнометражный мультфильм Barbie™ «Жемчужная принцесса» посвящен приключениям главной героини по имени Лумина. Она работает стилистом в салоне красоты, обладает способностью менять цвет жемчуга и даже не подозревает о том, что на самом деле является принцессой-русалкой. История полна захватывающих приключений, перевоплощений и неожиданных сюжетных поворотов...-Рейтинг:
-Релиз на DVD: 20 февраля 2014, «Двадцатый Век Фокс СНГ»
Релиз на Blu-ray: 20 февраля 2014, «Двадцатый Век Фокс СНГ»-Релиз: -Семпл-Качество: BDRip [BARBIE_THE_PEARL_PRINCESS_HDCLUB]
Формат: AVI
Видео: 656x368 (1.78:1), 23.976 fps, XviD build 65 ~1275 kbps avg, 0.22 bit/pixe
Аудио: 48 kHz, MPEG Layer 3, 2 ch, ~128.00 kbps avg
Субтитры: Отсутствуют-

MI

Format : AVIFormat/Info : Audio Video InterleaveFile size : 744 MiBDuration : 1h 13mnOverall bit rate : 1 413 KbpsWriting application : VirtualDubMod 1.5.10.3 | www.virtualdub-fr.org || (build 2550/release)Writing library : VirtualDubMod build 2550/release
VideoID : 0Format : MPEG-4 VisualFormat profile : Advanced Simple@L5Format settings, BVOP : 2Format settings, QPel : NoFormat settings, GMC : No warppointsFormat settings, Matrix : CustomCodec ID : XVIDCodec ID/Hint : XviDDuration : 1h 13mnBit rate : 1 276 KbpsWidth : 656 pixelsHeight : 368 pixelsDisplay aspect ratio : 16:9Frame rate : 23.976 fpsColor space : YUVChroma subsampling : 4:2:0Bit depth : 8 bitsScan type : ProgressiveCompression mode : LossyBits/(Pixel*Frame) : 0.220Stream size : 671 MiB (90%)Writing library : XviD 65
AudioID : 1Format : MPEG AudioFormat version : Version 1Format profile : Layer 3Codec ID : 55Codec ID/Hint : MP3Duration : 1h 13mnBit rate mode : ConstantBit rate : 128 KbpsChannel count : 2 channelsSampling rate : 48.0 KHzCompression mode : LossyStream size : 67.4 MiB (9%)Alignment : Aligned on interleavesInterleave, duration : 42 ms (1.00 video frame)Interleave, preload duration : 504 msWriting library : LAME3.99rEncoding settings : -m s -V 4 -q 2 -lowpass 17 -b 128
]


Показать сообщения:    

Текущее время: 11-Дек 19:15

Часовой пояс: UTC ± 0


Вы не можете начинать темы
Вы не можете отвечать на сообщения
Вы не можете редактировать свои сообщения
Вы не можете удалять свои сообщения
Вы не можете голосовать в опросах
Вы не можете прикреплять файлы к сообщениям
Вы не можете скачивать файлы

!ВНИМАНИЕ!
Сайт не предоставляет электронные версии произведений, а занимается лишь коллекционированием и каталогизацией ссылок, присылаемых и публикуемых на форуме нашими читателями. Если вы являетесь правообладателем какого-либо представленного материала и не желаете, чтобы ссылка на него находилась в нашем каталоге, свяжитесь с нами, и мы незамедлительно удалим ее. Файлы для обмена на трекере предоставлены пользователями сайта, и администрация не несет ответственности за их содержание. Просьба не заливать файлы, защищенные авторскими правами, а также файлы нелегального содержания!