Важное объявление!
У Нас Все раздачи мультитрекерные, при нуле пиров в релизах, можете смело вставать на закачку!
Статистика раздачи
Размер:     |    Зарегистрирован:     |    Скачан:     |   
Нет
 
     
 
 
Автор Сообщение

HUNTER

Стаж:
5 лет
Сообщений:
67920

Репутация: 101

[+] [-]
Вне форума [Профиль] [ЛС]

Барби: Жемчужная Принцесса / Barbie: The Pearl Princess-
Страна: США
Жанр: мультфильм
Год выпуска: 2014
Продолжительность: 01:13:35
Перевод: Профессиональный (полное дублирование)
Субтитры: Нет-Режиссер: Терри Классен / Terry Klassen-Описание: Полнометражный мультфильм Barbie™ «Жемчужная принцесса» посвящен приключениям главной героини по имени Лумина. Она работает стилистом в салоне красоты, обладает способностью менять цвет жемчуга и даже не подозревает о том, что на самом деле является принцессой-русалкой. История полна захватывающих приключений, перевоплощений и неожиданных сюжетных поворотов...-Рейтинг:
-Релиз на DVD: 20 февраля 2014, «Двадцатый Век Фокс СНГ»
Релиз на Blu-ray: 20 февраля 2014, «Двадцатый Век Фокс СНГ»-Релиз: -Семпл-Качество: BDRip [BARBIE_THE_PEARL_PRINCESS_HDCLUB]
Формат: AVI
Видео: 720x400 (1.80:1), 23.976 fps, XviD build 65 ~2365 kbps avg, 0.34 bit/pixel
Аудио: 48 kHz, AC3 Dolby Digital, 3/2 (L,C,R,l,r) + LFE ch, ~448 kbps
Субтитры: Отсутствуют-

MI

Format : AVIFormat/Info : Audio Video InterleaveFile size : 1.45 GiBDuration : 1h 13mnOverall bit rate : 2 823 KbpsWriting application : VirtualDubMod 1.5.10.3 | www.virtualdub-fr.org || (build 2550/release)Writing library : VirtualDubMod build 2550/release
VideoID : 0Format : MPEG-4 VisualFormat profile : Advanced Simple@L5Format settings, BVOP : 2Format settings, QPel : NoFormat settings, GMC : No warppointsFormat settings, Matrix : CustomCodec ID : XVIDCodec ID/Hint : XviDDuration : 1h 13mnBit rate : 2 365 KbpsWidth : 720 pixelsHeight : 400 pixelsDisplay aspect ratio : 16:9Frame rate : 23.976 fpsColor space : YUVChroma subsampling : 4:2:0Bit depth : 8 bitsScan type : ProgressiveCompression mode : LossyBits/(Pixel*Frame) : 0.343Stream size : 1.22 GiB (84%)Writing library : XviD 65
AudioID : 1Format : AC-3Format/Info : Audio Coding 3Mode extension : CM (complete main)Format settings, Endianness : BigCodec ID : 2000Duration : 1h 13mnBit rate mode : ConstantBit rate : 448 KbpsChannel count : 6 channelsChannel positions : Front: L C R, Side: L R, LFESampling rate : 48.0 KHzBit depth : 16 bitsCompression mode : LossyStream size : 236 MiB (16%)Alignment : Split accross interleavesInterleave, duration : 42 ms (1.00 video frame)Interleave, preload duration : 500 ms
]

_________________
Показать сообщения:    

Текущее время: Сегодня 16:51

Часовой пояс: GMT



Вы не можете начинать темы
Вы не можете отвечать на сообщения
Вы не можете редактировать свои сообщения
Вы не можете удалять свои сообщения
Вы не можете голосовать в опросах
Вы не можете прикреплять файлы к сообщениям
Вы не можете скачивать файлы