Баракамон / Barakamon [TV] [1-2 из 12] [Без хардсаба] [RUS(int)] [2014 г., комедия, повседневность, WEBRip] [720p] :: Ивановский Торрент трекер
Важное объявление!
У Нас Все раздачи мультитрекерные, при нуле пиров в релизах, можете смело вставать на закачку!
Статистика раздачи
Размер:     |    Зарегистрирован:     |    Скачан:     |   
Нет
 
     
 
 
Автор Сообщение

HUNTER

Стаж:
4 года 11 месяцев
Сообщений:
66098

Репутация: 101

[+] [-]
Вне форума [Профиль] [ЛС]

Баракамон / Barakamon
Страна: Япония
Год выпуска: 2014 г.
Жанр: комедия, повседневность
Тип: TV
Продолжительность: 12 эп, ~23 мин. серия
Озвучка:
- Двухголосая (муж. и жен.)
- Озвучивание: JAM & Shina [1-2 из 12] Сэмпл
Режиссер: Татибана Масаки
Студия: Cinema Citrus
Описание: В качестве наказания за драку с известным каллиграфом, Ханда Сейсю был отправлен на маленький отдаленный остров. Ханда всю жизнь прожил в большом городе, поэтому ему приходится адаптироваться к новому окружению. Люди на тракторах, незваные гости, раздражающие дети, использующие дом Ханды в качестве игровой площадки. Сможет ли Ханда пережить все это сумасшествие?
Качество: WEBRip [HorribleSubs]
Тип релиза: Без хардсаба
Формат видео: MP4
Видео: x264 (8 bit), 1280x720 (16:9), ~1776 kbps, 23.976 fps
Аудио: AAC, 192 kbps, 48.0 KHz, 2 ch Язык Русский (в составе контейнера)
Перевод: YakuSub Studio

Подробные тех. данные

GeneralComplete name : D:\Видео\Аниме\Баракамон\[AniDUB]_Barakamon_[01]_[720p_x264_Aac]_[JAM_Shina].mp4Format : MPEG-4Format profile : Base MediaCodec ID : isomFile size : 322 MiBDuration : 22mn 50sOverall bit rate mode : VariableOverall bit rate : 1 972 KbpsEncoded date : UTC 2014-07-05 20:33:25Tagged date : UTC 2014-07-05 20:33:25Writing application : Yamb 2.1.0.0 []http://yamb.unite-video.com]
VideoID : 2Format : AVCFormat/Info : Advanced Video CodecFormat profile : High@L4.0Format settings, CABAC : YesFormat settings, ReFrames : 6 framesCodec ID : avc1Codec ID/Info : Advanced Video CodingDuration : 22mn 50sBit rate : 1 776 KbpsMaximum bit rate : 10.7 MbpsWidth : 1 280 pixelsHeight : 720 pixelsDisplay aspect ratio : 16:9Frame rate mode : ConstantFrame rate : 23.976 fpsColor space : YUVChroma subsampling : 4:2:0Bit depth : 8 bitsScan type : ProgressiveBits/(Pixel*Frame) : 0.080Stream size : 290 MiB (90%)Writing library : x264 core 120 r2120 0c7dab9Encoding settings : cabac=1 / ref=6 / deblock=1:1:1 / analyse=0x3:0x113 / me=umh / subme=8 / psy=1 / psy_rd=0.40:0.00 / mixed_ref=1 / me_range=16 / chroma_me=1 / trellis=1 / 8x8dct=1 / cqm=0 / deadzone=21,11 / fast_pskip=1 / chroma_qp_offset=-2 / threads=4 / sliced_threads=0 / nr=0 / decimate=1 / interlaced=0 / bluray_compat=0 / constrained_intra=0 / bframes=3 / b_pyramid=2 / b_adapt=2 / b_bias=0 / direct=3 / weightb=1 / open_gop=0 / weightp=2 / keyint=250 / keyint_min=23 / scenecut=40 / intra_refresh=0 / rc_lookahead=50 / rc=2pass / mbtree=1 / bitrate=1776 / ratetol=1.0 / qcomp=0.60 / qpmin=0 / qpmax=69 / qpstep=4 / cplxblur=20.0 / qblur=0.5 / vbv_maxrate=3552 / vbv_bufsize=8880 / nal_hrd=none / ip_ratio=1.40 / aq=1:0.60Encoded date : UTC 2014-07-05 19:36:46Tagged date : UTC 2014-07-05 20:33:27
AudioID : 3Format : AACFormat/Info : Advanced Audio CodecFormat profile : LCCodec ID : 40Duration : 22mn 50sBit rate mode : VariableBit rate : 192 KbpsMaximum bit rate : 196 KbpsChannel(s) : 2 channelsChannel positions : Front: L RSampling rate : 48.0 KHzCompression mode : LossyStream size : 31.4 MiB (10%)Language : EnglishEncoded date : UTC 2014-07-05 20:33:27Tagged date : UTC 2014-07-05 20:33:27
Список эпизодов
01. Baraka Kodon
02. Yakamashika

Отличия

Скриншоты

_________________
Показать сообщения:    

Текущее время: Сегодня 12:30

Часовой пояс: GMT



Вы не можете начинать темы
Вы не можете отвечать на сообщения
Вы не можете редактировать свои сообщения
Вы не можете удалять свои сообщения
Вы не можете голосовать в опросах
Вы не можете прикреплять файлы к сообщениям
Вы не можете скачивать файлы