Ивановский Торрент трекер
Яндекс.Погода
 

[Цитировать]
HUNTER

Бандиты времени / Бандиты во времени / Time Bandits / Criterion Collection#37«...they didn't make history, they stole it!» Страна:ВеликобританияСтудия:Handmade Films Ltd.Жанр:Фантастика, Фэнтези, Комедия, ПриключенияГод выпуска:1981
Продолжительность:01:55:59Производство:The Criterion Collection #37Перевод:Профессиональный (Многоголосый закадровый)
Cубтитры:Английские, Русские
Премьера (мир):10.07.1981
Режиссер:Терри Гиллиам / Terry GilliamВ ролях:Крэйг Варнок, Джон Клиз, Шон Коннери, Шелли Дювалл, Кэтрин Хелмонд, Иэн Холм, Майкл Пэйлин, Ральф Ричардсон, Питер Вон, Дэвид УорнерОписание:Лента рассказывает о шести предприимчивых карликах, которые устраивают обычному мальчику по имени Кевин грандиозное путешествие по туннелям времени. Дело в том, что крошечные бандиты завладели волшебной картой, принадлежавшей их бывшему хозяину — Верховному Существу, сотворившему Мир.
С помощью заветной карты герои путешествуют из одной эпохи в другую и попадают в самые удивительные ситуации: они оказываются в компании подвыпившего Наполеона Бонапарта и царя Агамемнона, отправляются в плавание на корабле морского монстра и злополучном «Титанике», гостят в Шервудском лесу у Робин Гуда и пытаются выбраться из заточения Вечной Пустоты. Но помимо могущественного хозяина карты, ею хочет завладеть и Воплощение Зла, заточенное Высшим Существом в крепость Вечного Мрака.
Доп. информация:Исходник найден в сети.Звук взят из раздачи Glowamy-http://rutracker.org/forum/viewtopic.php?t=4995528.Огромное Спасибо Всем, без чьей помощи этот релиз не состоялся бы!Сценарий:Майкл Пэйлин, Терри ГиллиамПродюсер:Терри Гиллиам, Джордж Харрисон, Дэнис О’БрайэнОператор:Питер БижуКомпозитор:Майк МоранХудожник:Милли Барнс, Норман Гарвуд, Джеймс ЭчесонМонтаж:Джулиан Дойл

Знаете ли вы, что...

Награды и номинации


Рецензия

Софт

PgcDemux 1.2.0.5 - разделение компонентов диска на файлы.
BeLight - AC3 -> Wav.
Sound Forge pro 10 - синхронизация звука
Subtitle Workshop, MaestroSBT, SubtitleCreator, DVD SubEdit (субтитры).
MuxMan DVD authoring Professional 0.16.8 - мультиплексирование и авторинг.
DVDRemake Pro 3.6.4 - реавторинг DVD.
DVD Shrink 3.2 - Сэмпл.
-- Точка перехода.

Бонусы:(Без перевода) Диск 1-2

--Audio commentary featuring Gilliam, cowriter-actor Michael Palin, and actors John Cleese, David Warner, and Craig Warnock
--New piece, narrated by film writer David Morgan, featuring production designer Milly Burns and costume designer James Acheson discussing the creation of the film’s various historical periods and fantasy worlds (23:24)
--Conversation between Gilliam and film scholar Peter von Bagh, recorded at the 1998 Midnight Sun Film Festival (1:19:39)
--Appearance by actor Shelley Duvall on Tom Snyder’s Tomorrow show from 1981 (8:46)
--Gallery of rare photographs from the set
--Trailer (3:10)
Меню:Английский, статичное, озвученное.Сэмпл Диск 1:https://www.sendspace.com/file/tg4n6tСэмпл Диск 2:https://www.sendspace.com/file/8sdu8x
Тип релиза:DVD9 (Custom) + DVD5
Контейнер:DVD-Video
Видео:NTSC 16:9 (720x480) VBR, Auto Letterboxed, 8046 Кбит/сек, 23,976 (24000/1001) кадра/секАудио 1:Английский:AC3, 2 ch, 48.0 KHz, 384 Кбит/сек / ОригиналАудио 2:Английский:AC3, 2 ch, 48.0 KHz, 192 Кбит/сек / Комментарий Terry Gilliam, Michael Palin, John Cleese, David Warner, Craig Warnock Аудио 3:Русский:AC3, 2 ch, 48.0 KHz, 192 Кбит/сек / Профессиональный (Многоголосый закадровый)Формат субтитров:prerendered (DVD/IDX+SUB)

Dvd Info Диск 1

Title: Диск 1
Size: 7.80 Gb ( 8 182 196,00 KBytes ) - DVD-9
Enabled regions: 1, 2, 3, 4, 5, 6, 7, 8
VTS_01 :
Play Length: 00:00:00
Video: NTSC 16:9 (720x480) VBR, Auto Letterboxed
Audio:
English (Dolby AC3, 6 ch)
VTS_02 :
Play Length: 00:03:10
Video: NTSC 4:3 (720x480) VBR
Audio:
English (Dolby AC3, 1 ch)
VTS_03 :
Play Length: 01:55:59
Video: NTSC 16:9 (720x480) VBR, Auto Letterboxed
Audio:
English (Dolby AC3, 2 ch)
English (Dolby AC3, 1 ch)
Russian (Dolby AC3, 2 ch)
Subtitles:
English
Russian
VTS_04 :
Play Length: 00:00:20
Video: NTSC 16:9 (720x480) VBR, Auto Pan&Scan
Audio:
Not specified (Dolby AC3, 1 ch)
VTS_05 :
Play Length: 00:00:00
Video: NTSC 4:3 (720x480) VBR
Audio:
Not specified (Dolby AC3, 1 ch)

Dvd Info Диск 2

Title: Диск 2
Size: 4.26 Gb ( 4 469 782,00 KBytes ) - DVD-5
Enabled regions: 1, 2, 3, 4, 5, 6, 7, 8
VTS_01 :
Play Length: 00:00:00
Video: NTSC 16:9 (720x480) VBR, Auto Letterboxed
Audio:
English (Dolby AC3, 6 ch)
VTS_02 :
Play Length: 00:08:45
Video: NTSC 4:3 (720x480) VBR
Audio:
English (Dolby AC3, 1 ch)
VTS_03 :
Play Length: 00:23:22
Video: NTSC 16:9 (720x480) VBR, Auto Letterboxed
Audio:
English (Dolby AC3, 2 ch)
VTS_04 :
Play Length: 01:19:34
Video: NTSC 4:3 (720x480) VBR
Audio:
English (Dolby AC3, 1 ch)
VTS_05 :
Play Length: 00:00:13
Video: NTSC 16:9 (720x480) VBR, Auto Letterboxed
Audio:
Not specified (Dolby AC3, 1 ch)
Subtitles:
English
VTS_06 :
Play Length: 00:00:00
Video: NTSC 4:3 (720x480) VBR
Audio:
Not specified (Dolby AC3, 1 ch)

Mediainfo Диск 1

Общее
Полное имя : F:\Time Bandits DVD-9_Custom+DVD-5_Criterion#37\Диск 1\VIDEO_TS\VTS_03_1.VOB
Формат : MPEG-PS
Размер файла : 1024 Мбайт
Продолжительность : 15 м. 55 с.
Режим общего битрейта : Переменный
Общий поток : 8993 Кбит/сек
Видео
Идентификатор : 224 (0xE0)
Формат : MPEG Video
Версия формата : Version 2
Профиль формата : Main@Main
Параметр BVOP формата : Да
Параметр матрицы формата : Выборочная
Параметр GOP формата : Variable
Продолжительность : 15 м. 55 с.
Вид битрейта : Переменный
Битрейт : 8046 Кбит/сек
Максимальный битрейт : 9800 Кбит/сек
Ширина : 720 пикселей
Высота : 480 пикселей
Соотношение сторон : 16:9
Частота кадров : 23,976 (24000/1001) кадра/сек
Цветовое пространство : YUV
Субдискретизация насыщенности : 4:2:0
Битовая глубина : 8 бит
Тип развёртки : Прогрессивная
Порядок развёртки : 2:3 Pulldown
Метод сжатия : С потерями
Бит/(Пиксели*Кадры) : 0.971
Временной код первого кадра : 00:59:48:00
Оригинал временного кода : Group of pictures header
Размер потока : 916 Мбайт (89%)
Аудио #1
Идентификатор : 189 (0xBD)-128 (0x80)
Формат : AC-3
Формат/Информация : Audio Coding 3
Расширение режима : CM (complete main)
Параметр Endianness формата : Big
Режим смешивания : DVD-Video
Продолжительность : 15 м. 55 с.
Вид битрейта : Постоянный
Битрейт : 384 Кбит/сек
Каналы : 2 канала
Расположение каналов : Front: L R
Частота : 48,0 КГц
Частота кадров : 31,250 кадров/сек (1536 spf)
Метод сжатия : С потерями
Размер потока : 43,7 Мбайт (4%)
Аудио #2
Идентификатор : 189 (0xBD)-129 (0x81)
Формат : AC-3
Формат/Информация : Audio Coding 3
Расширение режима : CM (complete main)
Параметр Endianness формата : Big
Режим смешивания : DVD-Video
Продолжительность : 15 м. 55 с.
Вид битрейта : Постоянный
Битрейт : 192 Кбит/сек
Каналы : 1 канал
Расположение каналов : Front: C
Частота : 48,0 КГц
Частота кадров : 31,250 кадров/сек (1536 spf)
Метод сжатия : С потерями
Размер потока : 21,9 Мбайт (2%)
Аудио #3
Идентификатор : 189 (0xBD)-130 (0x82)
Формат : AC-3
Формат/Информация : Audio Coding 3
Расширение режима : CM (complete main)
Параметр Endianness формата : Big
Режим смешивания : DVD-Video
Продолжительность : 15 м. 55 с.
Вид битрейта : Постоянный
Битрейт : 192 Кбит/сек
Каналы : 2 канала
Расположение каналов : Front: L R
Частота : 48,0 КГц
Частота кадров : 31,250 кадров/сек (1536 spf)
Метод сжатия : С потерями
Размер потока : 21,9 Мбайт (2%)
Текст #1
Идентификатор : 189 (0xBD)-34 (0x22)
Формат : RLE
Формат/Информация : Run-length encoding
Режим смешивания : DVD-Video
Задержка видео : 12 с. 279 мс.
Текст #2
Идентификатор : 189 (0xBD)-32 (0x20)
Формат : RLE
Формат/Информация : Run-length encoding
Режим смешивания : DVD-Video
Текст #3
Идентификатор : 189 (0xBD)-33 (0x21)
Формат : RLE
Формат/Информация : Run-length encoding
Режим смешивания : DVD-Video

Mediainfo Диск 2

Общее
Полное имя : F:\Time Bandits DVD-9_Custom+DVD-5_Criterion#37\Диск 2\VIDEO_TS\VTS_04_1.VOB
Формат : MPEG-PS
Размер файла : 1024 Мбайт
Продолжительность : 24 м. 3 с.
Режим общего битрейта : Переменный
Общий поток : 5952 Кбит/сек
Видео
Идентификатор : 224 (0xE0)
Формат : MPEG Video
Версия формата : Version 2
Профиль формата : Main@Main
Параметр BVOP формата : Да
Параметр матрицы формата : Выборочная
Параметр GOP формата : Variable
Структура изображения : Frame
Продолжительность : 24 м. 3 с.
Вид битрейта : Переменный
Битрейт : 5642 Кбит/сек
Максимальный битрейт : 9800 Кбит/сек
Ширина : 720 пикселей
Высота : 480 пикселей
Соотношение сторон : 4:3
Частота кадров : 29,970 (30000/1001) кадров/сек
Стандарт вещания : NTSC
Цветовое пространство : YUV
Субдискретизация насыщенности : 4:2:0
Битовая глубина : 8 бит
Тип развёртки : Чересстрочная
Порядок развёртки : Верхнее поле первое
Метод сжатия : С потерями
Бит/(Пиксели*Кадры) : 0.545
Временной код первого кадра : 01:00:00:00
Оригинал временного кода : Group of pictures header
Размер потока : 971 Мбайт (95%)
Аудио
Идентификатор : 189 (0xBD)-128 (0x80)
Формат : AC-3
Формат/Информация : Audio Coding 3
Расширение режима : CM (complete main)
Параметр Endianness формата : Big
Режим смешивания : DVD-Video
Продолжительность : 24 м. 2 с.
Вид битрейта : Постоянный
Битрейт : 192 Кбит/сек
Каналы : 1 канал
Расположение каналов : Front: C
Частота : 48,0 КГц
Частота кадров : 31,250 кадров/сек (1536 spf)
Метод сжатия : С потерями
Размер потока : 33,0 Мбайт (3%)

Скриншоты меню Диск 1

Скриншоты фильма Диск 1

Скриншоты доп. материалов Диск 1


Скриншоты меню Диск 2


Скриншоты доп. материалов Диск 2


Полиграфия








Релиз: Уважаемые пользователи!Найдите пару минут поблагодарить релизера и высказаться в топике раздачи.Ваше мнение - бальзам для раздающего и пища для ума остальным пользователям.Мои раздачи


Показать сообщения:    

Текущее время: 11-Дек 18:56

Часовой пояс: UTC ± 0


Вы не можете начинать темы
Вы не можете отвечать на сообщения
Вы не можете редактировать свои сообщения
Вы не можете удалять свои сообщения
Вы не можете голосовать в опросах
Вы не можете прикреплять файлы к сообщениям
Вы не можете скачивать файлы

!ВНИМАНИЕ!
Сайт не предоставляет электронные версии произведений, а занимается лишь коллекционированием и каталогизацией ссылок, присылаемых и публикуемых на форуме нашими читателями. Если вы являетесь правообладателем какого-либо представленного материала и не желаете, чтобы ссылка на него находилась в нашем каталоге, свяжитесь с нами, и мы незамедлительно удалим ее. Файлы для обмена на трекере предоставлены пользователями сайта, и администрация не несет ответственности за их содержание. Просьба не заливать файлы, защищенные авторскими правами, а также файлы нелегального содержания!