Банда Спайкса / The Spikes Gang (Ричард Флейшер / Richard Fleischer) [1974, США, вестерн, HDTV 1080i] DVO (НТВ+) + MVO + Original Eng :: Ивановский Торрент трекер
Важное объявление!
У Нас Все раздачи мультитрекерные, при нуле пиров в релизах, можете смело вставать на закачку!
Статистика раздачи
Размер:     |    Зарегистрирован:     |    Скачан:     |   
Нет
 
     
 
 
Автор Сообщение

HUNTER

Стаж:
4 года 11 месяцев
Сообщений:
66116

Репутация: 101

[+] [-]
Вне форума [Профиль] [ЛС]

Банда Спайкса / The Spikes Gang
Страна: США
Студия: Duo Productions, Mirisch Corporation, The, Sanford Productions (III)
Жанр: вестерн
Год выпуска: 1974
Продолжительность: 01:32:24
Перевод 1: Профессиональный (двухголосый закадровый) НТВ+
Перевод 2: Профессиональный (многоголосый закадровый)
Cубтитры: нет
Оригинальная аудиодорожка: английский
Режиссер: Ричард Флейшер / Richard Fleischer
В ролях: Ли Марвин, Гэри Граймс, Рон Хоуард, Чарльз Мартин Смит, Arthur Hunnicutt, Noah Beery Jr., Marc Smith, Don Fellows, Elliott Sullivan, Robert Beatty, Ralph Brown, Bill Curran, Ricardo Palacios, David Thomson, Bert Conway
Описание: Юные друзья Уилл , Лэс и Тод по доброте душевной спасают жизнь бандиту Гарри Спайксу. Случай невольно воодушевляет троицу провинциальных авантюристов на сомнительные подвиги за гранью закона. Они покидают отчий дом в надежде на лучшую жизнь.
Но в первом же попавшемся городке парни неудачно грабят банк и шальной пулей убивают сенатора штата. Новоявленные правонарушители пускаются в бега, а за их головы объявляются баснословные вознаграждения. На помощь друзьям приходит сам Гарри Спайкс, решивший сформировать из них заправскую банду.
II Сэмпл II IMDB II
Дополнительно:
Многоголоска и оригнальная дорога взяты с этой раздачи, спасибо rulle1
Тип релиза: HDTV 1080i
Контейнер: MKV
Видео: AVC / 1920x1080 / 16:9 / 25.0fps / Bit rate 5592Kbps
Аудио 1: MP2 / 48.0 KHz / 2ch. / 192kbps / rus / dvo
Аудио 2: AC3 / 48.0 KHz / 6ch. / 448kbps / rus / mvo
Аудио 3: AC3 / 48.0 KHz / 6ch. / 448kbps / original eng

MediaInfo

Общее
Уникальный идентификатор : 199732659899802984618319245205823610444 (0x96431C6E408C947AA2D4EC7469C4DE4C)
Полное имя : E:\torrent\The.Spikes.Gang.1974.HDTV.1080i.mkv
Формат : Matroska
Версия формата : Version 4 / Version 2
Размер файла : 4,40 Гбайт
Продолжительность : 1 ч. 32 м.
Общий поток : 6816 Кбит/сек
Дата кодирования : UTC 2014-07-30 01:49:26
Программа кодирования : mkvmerge v7.1.0 ('Good Love') 64bit built on Jul 27 2014 13:06:55
Библиотека кодирования : libebml v1.3.0 + libmatroska v1.4.1
DURATION : 01:32:24.032000000
NUMBER_OF_FRAMES : 173251
NUMBER_OF_BYTES : 310465792
_STATISTICS_WRITING_APP : mkvmerge v7.1.0 ('Good Love') 64bit built on Jul 27 2014 13:06:55
_STATISTICS_WRITING_DATE_UTC : 2014-07-30 01:49:26
_STATISTICS_TAGS : BPS DURATION NUMBER_OF_FRAMES NUMBER_OF_BYTES
Видео
Идентификатор : 1
Формат : AVC
Формат/Информация : Advanced Video Codec
Профиль формата : High@L4.0
Параметр CABAC формата : Да
Параметр ReFrames формата : 3 кадра
Параметр GOP формата : M=4, N=32
Идентификатор кодека : V_MPEG4/ISO/AVC
Продолжительность : 1 ч. 32 м.
Битрейт : 5592 Кбит/сек
Ширина : 1920 пикселей
Высота : 1080 пикселей
Соотношение сторон : 16:9
Режим частоты кадров : Постоянный
Частота кадров : 25,000 кадров/сек
Стандарт вещания : Component
Цветовое пространство : YUV
Субдискретизация насыщенности : 4:2:0
Битовая глубина : 8 бит
Тип развёртки : Чересстрочная
Порядок развёртки : Верхнее поле первое
Бит/(Пиксели*Кадры) : 0.108
Размер потока : 3,61 Гбайт (82%)
Заголовок : The.Spikes.Gang.1974.HDTV.1080i
Default : Да
Forced : Нет
Основные цвета : BT.709
Характеристики трансфера : BT.709
Коэффициенты матрицы : BT.709
Аудио #1
Идентификатор : 2
Формат : MPEG Audio
Версия формата : Version 1
Профиль формата : Layer 2
Идентификатор кодека : A_MPEG/L2
Идентификатор кодека/Подсказка : MP2
Продолжительность : 1 ч. 32 м.
Вид битрейта : Постоянный
Битрейт : 192 Кбит/сек
Каналы : 2 канала
Частота : 48,0 КГц
Метод сжатия : С потерями
Размер потока : 127 Мбайт (3%)
Заголовок : rus / dvo / NTV+ / MP2 / 2ch / 192Kbps
Язык : Russian
Default : Да
Forced : Нет
Аудио #2
Идентификатор : 3
Формат : AC-3
Формат/Информация : Audio Coding 3
Расширение режима : CM (complete main)
Параметр Endianness формата : Big
Идентификатор кодека : A_AC3
Продолжительность : 1 ч. 32 м.
Вид битрейта : Постоянный
Битрейт : 448 Кбит/сек
Каналы : 6 каналов
Расположение каналов : Front: L C R, Side: L R, LFE
Частота : 48,0 КГц
Битовая глубина : 16 бит
Метод сжатия : С потерями
Размер потока : 296 Мбайт (7%)
Заголовок : rus / mvo / AC3 / 6ch / 448Kbps
Язык : Russian
Default : Нет
Forced : Нет
Аудио #3
Идентификатор : 4
Формат : AC-3
Формат/Информация : Audio Coding 3
Расширение режима : CM (complete main)
Параметр Endianness формата : Big
Идентификатор кодека : A_AC3
Продолжительность : 1 ч. 32 м.
Вид битрейта : Постоянный
Битрейт : 448 Кбит/сек
Каналы : 6 каналов
Расположение каналов : Front: L C R, Side: L R, LFE
Частота : 48,0 КГц
Битовая глубина : 16 бит
Метод сжатия : С потерями
Размер потока : 296 Мбайт (7%)
Заголовок : original eng / AC3 / 6ch / 448Kbps
Язык : English
Default : Нет
Forced : Нет

Скриншот с названием фильма

Скриншоты


Сравнение с DVD




_________________
Показать сообщения:    

Текущее время: Сегодня 16:17

Часовой пояс: GMT



Вы не можете начинать темы
Вы не можете отвечать на сообщения
Вы не можете редактировать свои сообщения
Вы не можете удалять свои сообщения
Вы не можете голосовать в опросах
Вы не можете прикреплять файлы к сообщениям
Вы не можете скачивать файлы