Ивановский Торрент трекер
Яндекс.Погода
 

[Цитировать]
HUNTER

Бамси и город воров / Bamse och tjuvstaden
Страна: Швеция
Жанр: Мультфильм
Продолжительность: 1:02:51
Год выпуска: 2014
Перевод: Одноголосый закадровый
Русские субтитры: нет
Режиссёр: Christian Ryltenius
Роли озвучивали: Peter Haber, Morgan Alling, Steve Kratz
Описание: Бамси со своей семьёй и друзьями, живет в мирной деревне и готовится отметить день рождения Черепашкина. Но коварный план лиса Рейнарда, заставляет Бамси и его друзей пуститься в опасное путешествие
Доп. информация: Переводил и озвучивал сам, так что не серчайте.
Кому надо, качайте быстрее, его скорее всего удалят
Семпл: http://multi-up.com/1026840
Качество: DVDRip
Формат: AVI
Видео: 1 889 Kbps 720:404 pixels Frame rate : 25.000 fps Format : MPEG-4 Visual DivX 4
Аудио: MP3 128 Kbps 44.1 KHz
Субтитры: отсутствуют

Подробные технические данные

Format : AVIFormat/Info : Audio Video InterleaveFile size : 911 MiBDuration : 1h 2mnOverall bit rate : 2 027 KbpsWriting application : Lavf56.16.101Writing library : VirtualDub build 35491/release
VideoID : 0Format : MPEG-4 VisualFormat profile : Advanced Simple@L1Format settings, BVOP : 3Format settings, QPel : NoFormat settings, GMC : No warppointsFormat settings, Matrix : Default (H.263)Codec ID : DIVXCodec ID/Info : Project MayoCodec ID/Hint : DivX 4Duration : 1h 2mnBit rate : 1 889 KbpsWidth : 720 pixelsHeight : 404 pixelsDisplay aspect ratio : 16:9Frame rate : 25.000 fpsColor space : YUVChroma subsampling : 4:2:0Bit depth : 8 bitsScan type : ProgressiveCompression mode : LossyBits/(Pixel*Frame) : 0.260Stream size : 850 MiB (93%)Writing library : Lavc56.16.100
AudioID : 1Format : MPEG AudioFormat version : Version 1Format profile : Layer 3Mode : Joint stereoMode extension : MS StereoCodec ID : 55Codec ID/Hint : MP3Duration : 1h 2mnBit rate mode : ConstantBit rate : 128 KbpsChannel(s) : 2 channelsSampling rate : 44.1 KHzCompression mode : LossyStream size : 57.5 MiB (6%)Alignment : Split accross interleavesInterleave, duration : 40 ms (1.00 video frame)Interleave, preload duration : 500 ms

Скриншоты




Показать сообщения:    

Текущее время: 22-Окт 12:56

Часовой пояс: UTC - 1


Вы не можете начинать темы
Вы не можете отвечать на сообщения
Вы не можете редактировать свои сообщения
Вы не можете удалять свои сообщения
Вы не можете голосовать в опросах
Вы не можете прикреплять файлы к сообщениям
Вы не можете скачивать файлы

!ВНИМАНИЕ!
Сайт не предоставляет электронные версии произведений, а занимается лишь коллекционированием и каталогизацией ссылок, присылаемых и публикуемых на форуме нашими читателями. Если вы являетесь правообладателем какого-либо представленного материала и не желаете, чтобы ссылка на него находилась в нашем каталоге, свяжитесь с нами, и мы незамедлительно удалим ее. Файлы для обмена на трекере предоставлены пользователями сайта, и администрация не несет ответственности за их содержание. Просьба не заливать файлы, защищенные авторскими правами, а также файлы нелегального содержания!