Важное объявление!
У Нас Все раздачи мультитрекерные, при нуле пиров в релизах, можете смело вставать на закачку!
Статистика раздачи
Размер:     |    Зарегистрирован:     |    Скачан:     |   
Нет
 
     
 
 
Автор Сообщение

HUNTER

Стаж:
5 лет
Сообщений:
67920

Репутация: 101

[+] [-]
Вне форума [Профиль] [ЛС]

Балто 2: В Поисках Волка / Balto: Wolf Quest
Год выпуска: 2002
Страна: США
Жанр: мультфильм, фэнтези, семейный, приключения
Продолжительность: 01:15:24
Перевод: Профессиональный (дублированный) - Первый Канал
Перевод 2: Профессиональный (дублированный) - СТС
Перевод 3: Профессиональный (двухголосый закадровый) - DVD
Русские субтитры: нет
Режиссёр: Фил Вайнштейн / Phil Weinstein
Роли озвучивали: Морис ЛаМарш (Balto), Джоди Бенсон (Jenna), Лейси Чаберт (Aleu), Дэвид Кэрредин (Nava the Wolf Shaman), Марк Хэмилл (Niju the Evil Wolf), Чарльз Флайшер (Boris), Питер МакНикол (Muru), Роб Полсен (Terrier / Sumac / Wolverine 2), Николетт Лител (Dingo), Мелани Спор (Saba)-Мировая премьера: 15 февраля 2002-Описание: Продолжение приключений легендарного пса Балто. Случилось так, что Балто стал отцом. Он сделал все возможное, чтобы пристроить всех своих отпрысков в хорошие семьи. Но одна девочка, по имени Алу, вдруг почувствовала, что никогда не сможет быть похожей на своих братьев и сестер. После того, как она встретила в лесу охотника, Алу ощутила пробуждение загадочной природы волка внутри себя. Кто же она — волк или собака? Чтобы найти ответ на этот вопрос, Алу отправляется в путешествие по бескрайним просторам Аляски, в котором ее будет сопровождать любящий отец Балто.-Исходник видео: HDTVRip 720p от Топтыга-Dark Kotik - собственная запись дубляжа с Первого Канала через видеомагнитофон и оцифровка с видеокассеты.
xfiles - собственная запись дубляжа с телеканала СТС через спутник.
kneazle - DVDRip с двухголосым переводом.
Mr. Maximus - синхронизация переводов.-Дубляжи на трекере появляются впервые.
В дубляже Первого Канала есть несколько вставок дубляжа СТС на пропущенных во время записи местах.-

MPAA: G - Нет возрастных ограничений-Качество: HDTVRip
Формат: AVI -> //SAMPLE//
Видео: XviD, 720x544 (4:3), 23.976 fps, 2166 kbps avg
Аудио:
1 - 48 khz, AC3 Dolby Digital, 2/0 (L,R) ch, ~224 kbps [Первый Канал] VHSRip
2 - 48 khz, AC3 Dolby Digital, 2/0 (L,R) ch, ~256 kbps [СТС] SATRip
3 - 48 khz, AC3 Dolby Digital, 2/0 (L,R) ch, ~192 kbps [DVO] DVDRip

Подробные технические данные

GeneralComplete name : E:\Торрент Файлы\Будущие Релизы на Трекере\1.35 - 1.46 и более гб\Балто 2; В Поисках Волка (Первый Канал + СТС + DVO).aviFormat : AVIFormat/Info : Audio Video InterleaveFile size : 1.50 GiBDuration : 1h 15mnOverall bit rate : 2 857 KbpsWriting application : VirtualDubMod 1.5.10.3 | www.virtualdub-fr.org || (build 2550/release)Writing library : VirtualDubMod build 2550/release
VideoID : 0Format : MPEG-4 VisualFormat profile : Advanced Simple@L5Format settings, BVOP : 2Format settings, QPel : NoFormat settings, GMC : No warppointsFormat settings, Matrix : CustomCodec ID : XVIDCodec ID/Hint : XviDDuration : 1h 15mnBit rate : 2 166 KbpsWidth : 720 pixelsHeight : 544 pixelsDisplay aspect ratio : 4:3Frame rate : 23.976 fpsColor space : YUVChroma subsampling : 4:2:0Bit depth : 8 bitsScan type : ProgressiveCompression mode : LossyBits/(Pixel*Frame) : 0.231Stream size : 1.14 GiB (76%)Writing library : XviD 1.2.1 (UTC 2008-12-04)
Audio #1ID : 1Format : AC-3Format/Info : Audio Coding 3Mode extension : CM (complete main)Format settings, Endianness : BigCodec ID : 2000Duration : 1h 15mnBit rate mode : ConstantBit rate : 224 KbpsChannel(s) : 2 channelsChannel positions : Front: L RSampling rate : 48.0 KHzCompression mode : LossyStream size : 121 MiB (8%)Alignment : Split accross interleavesInterleave, duration : 42 ms (1.00 video frame)Interleave, preload duratio : 500 ms
Audio #2ID : 2Format : AC-3Format/Info : Audio Coding 3Mode extension : CM (complete main)Format settings, Endianness : BigCodec ID : 2000Duration : 1h 15mnBit rate mode : ConstantBit rate : 256 KbpsChannel(s) : 2 channelsChannel positions : Front: L RSampling rate : 48.0 KHzCompression mode : LossyStream size : 138 MiB (9%)Alignment : Split accross interleavesInterleave, duration : 42 ms (1.00 video frame)Interleave, preload duratio : 500 ms
Audio #3ID : 3Format : AC-3Format/Info : Audio Coding 3Mode extension : CM (complete main)Format settings, Endianness : BigCodec ID : 2000Duration : 1h 15mnBit rate mode : ConstantBit rate : 192 KbpsChannel(s) : 2 channelsChannel positions : Front: L RSampling rate : 48.0 KHzCompression mode : LossyStream size : 104 MiB (7%)Alignment : Split accross interleavesInterleave, duration : 42 ms (1.00 video frame)Interleave, preload duratio : 500 ms

Скриншоты


_________________
Показать сообщения:    

Текущее время: Сегодня 16:49

Часовой пояс: GMT



Вы не можете начинать темы
Вы не можете отвечать на сообщения
Вы не можете редактировать свои сообщения
Вы не можете удалять свои сообщения
Вы не можете голосовать в опросах
Вы не можете прикреплять файлы к сообщениям
Вы не можете скачивать файлы