Ивановский Торрент трекер
Яндекс.Погода
 

[Цитировать]
HUNTER

Балто 2: В поисках волка / Балто 2: Путешествие волка / Болто 2 / Balto: Wolf Quest / Balto 2: Travel of the Wolf-
Год выпуска: 2002
Страна: США
Жанр: мультфильм, приключения, семейный
Продолжительность: 01:15:24
Перевод #1: Профессиональный (дублированный) - Премьер Диджитал / Канал "Дисней"
Перевод #2: Профессиональный (многоголосый закадровый) - Премьер Видео
Перевод #3: Профессиональный (многоголосый закадровый) - Юниверсал Пикчерс-Режиссёр: Фил Вейнштейн / Phil Weinstein-Роли озвучивали: Морис ЛаМарш, Джоди Бенсон, Лэйси Чэберт, Дэвид Кэррадайн, Марк Хэмилл, Чарльз Фляйшер, Питер МакНикол, Роб Полсен, Николетт Литтл, Мелани Спор, Кевин Шон, Джо Аляски, Моннае Майчелл, Мэри Кэй Бергман, Джефф Беннетт-Роли дублировали: Даниил Эльдаров (Болто, Як), Наталья Казначеева (Дженна), Ольга Шорохова (Алу, Лиса), Виталий Петров (Нава, Нук, Охотник), Михаил Тихонов (Ниджу, Борис, Муру, Терьер, Сумак)-Описание: Настоящий герой возвращается в захватывающем новом приключении, таком же большом, как мир, который называется СЕВЕР! Этот наполненный событиями, полнометражный сиквел оригинального Балто - блестяще анимированное приключение, которое можно смотреть и пересматривать не один раз всей семьей. Наполовину лайка, наполовину волк Балто знает, что такое зов природы. Поэтому, когда его маленькая своенравная дочь Алу исследует свою волчью родословную, Балто понимает, она должна следовать велению своего сердца. Тогда в глубине пустынной дикой Аляски Алу будет искать свой собственный путь, борясь с вожаком стаи диких волков и с помощью своего отважного отца исполнить героическое предназначение.-Рейтинг:
-Доп.информация: Синхронизация дубляжа с канала "Дисней" T-M-N-T.-Исходник: HDTV 1080i-Качество: HDTVRip
Формат: AVI
Видео: 720x544 / XviD / 16:9 / 2166 kbps
Аудио #1: Русский | AC3 | 2.0 | 48 kHz | 192 kbps | Dub / Премьер Диджитал
Аудио #2: Русский | AC3 | 2.0 | 48 kHz | 192 kbps | MVO / Премьер Видео
Аудио #3: Русский | AC3 | 2.0 | 48 kHz | 192 kbps | MVO / Юниверсал Пикчерс-

Подробные технические данные

GeneralFormat : AVIFormat/Info : Audio Video InterleaveFile size : 1.45 GiBDuration : 1h 15mnOverall bit rate : 2 762 KbpsWriting application : VirtualDubMod 1.5.10.3 (build 2550/release)Writing library : VirtualDubMod build 2550/release
VideoID : 0Format : MPEG-4 VisualFormat profile : Advanced Simple@L5Format settings, BVOP : 2Format settings, QPel : NoFormat settings, GMC : No warppointsFormat settings, Matrix : CustomCodec ID : XVIDCodec ID/Hint : XviDDuration : 1h 15mnBit rate : 2 166 KbpsWidth : 720 pixelsHeight : 544 pixelsDisplay aspect ratio : 4:3Frame rate : 23.976 fpsColor space : YUVChroma subsampling : 4:2:0Bit depth : 8 bitsScan type : ProgressiveCompression mode : LossyBits/(Pixel*Frame) : 0.231Stream size : 1.14 GiB (78%)Writing library : XviD 1.2.1 (UTC 2008-12-04)
Audio #1ID : 1Format : AC-3Format/Info : Audio Coding 3Mode extension : CM (complete main)Format settings, Endianness : BigCodec ID : 2000Duration : 1h 15mnBit rate mode : ConstantBit rate : 192 KbpsChannel(s) : 2 channelsChannel positions : Front: L RSampling rate : 48.0 KHzBit depth : 16 bitsCompression mode : LossyStream size : 104 MiB (7%)Alignment : Split accross interleavesInterleave, duration : 42 ms (1.00 video frame)Interleave, preload duration : 500 ms
Audio #2ID : 2Format : AC-3Format/Info : Audio Coding 3Mode extension : CM (complete main)Format settings, Endianness : BigCodec ID : 2000Duration : 1h 15mnBit rate mode : ConstantBit rate : 192 KbpsChannel(s) : 2 channelsChannel positions : Front: L RSampling rate : 48.0 KHzBit depth : 16 bitsCompression mode : LossyStream size : 104 MiB (7%)Alignment : Split accross interleavesInterleave, duration : 42 ms (1.00 video frame)Interleave, preload duration : 500 ms
Audio #3ID : 3Format : AC-3Format/Info : Audio Coding 3Mode extension : CM (complete main)Format settings, Endianness : BigCodec ID : 2000Duration : 1h 15mnBit rate mode : ConstantBit rate : 192 KbpsChannel(s) : 2 channelsChannel positions : Front: L RSampling rate : 48.0 KHzBit depth : 16 bitsCompression mode : LossyStream size : 104 MiB (7%)Alignment : Split accross interleavesInterleave, duration : 42 ms (1.00 video frame)Interleave, preload duration : 500 ms

-

Скриншоты

0 человек читают эту тему: 0 пользователей, 0 скрытых пользователей, 0 гостей

Показать сообщения:    

Текущее время: 24-Авг 09:42

Часовой пояс: UTC - 1


Вы не можете начинать темы
Вы не можете отвечать на сообщения
Вы не можете редактировать свои сообщения
Вы не можете удалять свои сообщения
Вы не можете голосовать в опросах
Вы не можете прикреплять файлы к сообщениям
Вы не можете скачивать файлы

!ВНИМАНИЕ!
Сайт не предоставляет электронные версии произведений, а занимается лишь коллекционированием и каталогизацией ссылок, присылаемых и публикуемых на форуме нашими читателями. Если вы являетесь правообладателем какого-либо представленного материала и не желаете, чтобы ссылка на него находилась в нашем каталоге, свяжитесь с нами, и мы незамедлительно удалим ее. Файлы для обмена на трекере предоставлены пользователями сайта, и администрация не несет ответственности за их содержание. Просьба не заливать файлы, защищенные авторскими правами, а также файлы нелегального содержания!