Ивановский Торрент трекер
Яндекс.Погода
 

[Цитировать]
HUNTER

Балто 2: В поисках волка / Балто 2: Путешествие волка / Болто 2 / Balto: Wolf Quest- Год выпуска: 2002
Страна: США
Жанр: мультфильм, приключения, семейный
Продолжительность: 01:15:24
Перевод #1: Профессиональный (дублированный) - СТС
Перевод #2: Профессиональный (дублированный) - Первый Канал | Со вставками перевода СТС |-Режиссёр: Фил Вейнштейн / Phil Weinstein-Роли озвучивали: Морис ЛаМарш (Balto), Джоди Бенсон (Jenna), Лэйси Чеберт (Aleu), Дэвид Кэррадайн (Nava the Wolf Shaman), Марк Хэмилл (Niju the Evil Wolf), Чарльз Флейшер (Boris), Питер МакНикол (Muru), Роб Полсен (Terrier / Sumac / Wolverine 2), Николетт Литтл (Dingo), Мелани Спор (Saba), Кевин Шон (Muc / Luc / Wolverine 1), Джо Аляски (Hunter / Nuk), Моннае Майчелл (Aniu), Мэри Кей Бергман (Fox / Wolverine 3), Джефф Беннетт (Yak), Молли Марлетт (Young girl / puppy)-Роли дублировали (СТС): Даниил Эльдаров (Болто, Як), Наталья Казначеева (Дженна), Ольга Шорохова (Алу, Лиса), Виталий Петров (Нава, Нук, Охотник), Михаил Тихонов (Ниджу, Борис, Муру, Терьер, Сумак)-Роли дублировали (Первый Канал): Ольга Гаспарова, Людмила Гнилова, Андрей Бархударов, Владимир Вихров, Андрей Казанцев, Олег Куценко, Виктор Петров, Олег Хворостенко-Описание: Настоящий герой возвращается в захватывающем новом приключении, таком же большом, как мир, который называется СЕВЕР! Этот наполненный событиями, полнометражный сиквел оригинального Балто - блестяще анимированное приключение, которое можно смотреть и пересматривать не один раз всей семьей. Наполовину лайка, наполовину волк Балто знает, что такое зов природы. Поэтому, когда его маленькая своенравная дочь Алу исследует свою волчью родословную, Балто понимает, она должна следовать велению своего сердца. Тогда в глубине пустынной дикой Аляски Алу будет искать свой собственный путь, борясь с вожаком стаи диких волков и с помощью своего отважного отца исполнить героическое предназначение.- -Доп.информация:
xfiles - собственная запись дубляжа с телеканала СТС через спутник.
Dark Kotik - собственная запись дубляжа с Первого Канала через видеомагнитофон и оцифровка с видеокассеты.
Mr. Maximus - синхронизация переводов.
T-M-N-T - подготовка видеоряда.-Исходник: HDTV 1080i-Качество: HDTVRip
Формат: AVI
Видео: 720x544 / XviD / 16:9 / 1112 kbps
Аудио #1: Русский | MP3 | 2.0 | 48 kHz | 128 kbps | Dub / СТС
Аудио #2: Русский | MP3 | 2.0 | 48 kHz | 128 kbps | Dub / Первый Канал-

Подробные технические данные

GeneralFormat : AVIFormat/Info : Audio Video InterleaveFile size : 745 MiBDuration : 1h 15mnOverall bit rate : 1 382 KbpsWriting application : VirtualDubMod 1.5.10.3 (build 2550/release)Writing library : VirtualDubMod build 2550/release
VideoID : 0Format : MPEG-4 VisualFormat profile : Advanced Simple@L5Format settings, BVOP : 2Format settings, QPel : NoFormat settings, GMC : No warppointsFormat settings, Matrix : CustomCodec ID : XVIDCodec ID/Hint : XviDDuration : 1h 15mnBit rate : 1 112 KbpsWidth : 720 pixelsHeight : 544 pixelsDisplay aspect ratio : 4:3Frame rate : 23.976 fpsColor space : YUVChroma subsampling : 4:2:0Bit depth : 8 bitsScan type : ProgressiveCompression mode : LossyBits/(Pixel*Frame) : 0.118Stream size : 600 MiB (80%)Writing library : XviD 1.2.1 (UTC 2008-12-04)
Audio #1ID : 1Format : MPEG AudioFormat version : Version 1Format profile : Layer 3Mode : Joint stereoMode extension : MS StereoCodec ID : 55Codec ID/Hint : MP3Duration : 1h 15mnBit rate mode : ConstantBit rate : 128 KbpsChannel(s) : 2 channelsSampling rate : 48.0 KHzCompression mode : LossyStream size : 69.0 MiB (9%)Alignment : Aligned on interleavesInterleave, duration : 42 ms (1.00 video frame)Interleave, preload duration : 504 ms
Audio #2ID : 2Format : MPEG AudioFormat version : Version 1Format profile : Layer 3Mode : Joint stereoMode extension : MS StereoCodec ID : 55Codec ID/Hint : MP3Duration : 1h 15mnBit rate mode : ConstantBit rate : 128 KbpsChannel(s) : 2 channelsSampling rate : 48.0 KHzCompression mode : LossyStream size : 69.0 MiB (9%)Alignment : Aligned on interleavesInterleave, duration : 42 ms (1.00 video frame)Interleave, preload duration : 504 ms

-

Скриншоты

Показать сообщения:    

Текущее время: 23-Окт 19:29

Часовой пояс: UTC - 1


Вы не можете начинать темы
Вы не можете отвечать на сообщения
Вы не можете редактировать свои сообщения
Вы не можете удалять свои сообщения
Вы не можете голосовать в опросах
Вы не можете прикреплять файлы к сообщениям
Вы не можете скачивать файлы

!ВНИМАНИЕ!
Сайт не предоставляет электронные версии произведений, а занимается лишь коллекционированием и каталогизацией ссылок, присылаемых и публикуемых на форуме нашими читателями. Если вы являетесь правообладателем какого-либо представленного материала и не желаете, чтобы ссылка на него находилась в нашем каталоге, свяжитесь с нами, и мы незамедлительно удалим ее. Файлы для обмена на трекере предоставлены пользователями сайта, и администрация не несет ответственности за их содержание. Просьба не заливать файлы, защищенные авторскими правами, а также файлы нелегального содержания!