Важное объявление!
У Нас Все раздачи мультитрекерные, при нуле пиров в релизах, можете смело вставать на закачку!
 
Автор Сообщение

HUNTER

Стаж:
4 года 7 месяцев
Сообщений:
61546

Репутация: 101

[+] [-]
Вне форума [Профиль] [ЛС]

Багровый пик / Crimson Peak
Страна: США, Канада
Жанр: ужасы, фэнтези, триллер, драма, мелодрама, детектив
Год выпуска: 2015
Продолжительность: 01:58:36-Перевод: Профессиональный (дублированный) iTunes
Cубтитры: нет
Оригинальная аудиодорожка: нет-Режиссер: Гильермо дель Торо / Guillermo del Toro-В ролях: Миа Васиковска, Джессика Честейн, Том Хиддлстон, Чарли Ханнэм, Джим Бивер, Берн Горман, Лесли Хоуп, Даг Джонс, Джонатан Хайд, Брюс Грэй
Описание: Дурная слава преследует дом, что возвышается над городом. С приходом зимы он утопает в кровавых снегах. Говорят, дело в глине, проступающей на поверхность. Но ни единая душа не рискует ступить на ледяной склон… кроме нее. Она влюблена в таинственного незнакомца, живущего в древних стенах со своей сестрой. Багровый пик пробудился и уже не уснет.-Релиз от:
-Тип релиза: WEB-DL 720p
Контейнер: MKV-Видео: 1280 x 688p (2.406) 23.976 fps, AVC High@L3.1, ~ 4329 kbps, 0.183 bit/pixel-Аудио: Russian: 48 kHz, AC3, 3/2 (L,C,R,l,r) + LFE ch, ~384.00 kbps avg

MediaInfo

Общее
Уникальный идентификатор : 224508587559158459739752556856761720497 (0xA8E6C7F9C9F7BE3BBC9F767C6D1D1EB1)
Полное имя : D:\Crimson Peak\Crimson.Peak.2015.720p.WEB-DL.Rus.HDCLUB.mkv
Формат : Matroska
Версия формата : Version 2
Размер файла : 3,59 Гбайт
Продолжительность : 1 ч. 58 м.
Общий поток : 4329 Кбит/сек
Название фильма : Crimson Peak (2015) - Release for HDCLUB
Дата кодирования : UTC 2015-12-09 20:24:53
Программа кодирования : mkvmerge v3.4.0 ('Rapunzel') built on May 15 2010 09:38:20
Библиотека кодирования : libebml v0.8.0 + libmatroska v0.9.0
Видео
Идентификатор : 1
Формат : AVC
Формат/Информация : Advanced Video Codec
Профиль формата : High@L3.1
Параметр CABAC формата : Нет
Параметр ReFrames формата : 2 кадра
Идентификатор кодека : V_MPEG4/ISO/AVC
Продолжительность : 1 ч. 58 м.
Битрейт : 3858 Кбит/сек
Ширина : 1280 пикселей
Высота : 688 пикселей
Соотношение сторон : 1,85:1
Режим частоты кадров : Постоянный
Частота кадров : 23,976 кадра/сек
Цветовое пространство : YUV
Субдискретизация насыщенности : 4:2:0
Битовая глубина : 8 бит
Тип развёртки : Прогрессивная
Бит/(Пиксели*Кадры) : 0.183
Размер потока : 3,20 Гбайт (89%)
Заголовок : Crimson Peak (2015) - Release for HDCLUB
Язык : English
Default : Да
Forced : Нет
Основные цвета : BT.709
Характеристики трансфера : BT.709
Коэффициенты матрицы : BT.709
colour_range : Limited
Аудио
Идентификатор : 2
Формат : AC-3
Формат/Информация : Audio Coding 3
Расширение режима : CM (complete main)
Параметр Endianness формата : Big
Идентификатор кодека : A_AC3
Продолжительность : 1 ч. 58 м.
Вид битрейта : Постоянный
Битрейт : 384 Кбит/сек
Каналы : 6 каналов
Расположение каналов : Front: L C R, Side: L R, LFE
Частота : 48,0 КГц
Битовая глубина : 16 бит
Метод сжатия : С потерями
Размер потока : 326 Мбайт (9%)
Заголовок : AC3 5.1 @ 384 kbps - DUB, iTunes
Язык : Russian
Default : Да
Forced : Нет
Меню
00:00:00.000 : en:1
00:06:02.000 : en:2
00:11:01.000 : en:3
00:15:29.000 : en:4
00:21:12.000 : en:5
00:25:52.000 : en:6
00:31:13.000 : en:7
00:39:25.000 : en:8
00:45:40.000 : en:9
00:51:56.000 : en:10
00:56:11.000 : en:11
01:02:04.000 : en:12
01:08:19.000 : en:13
01:14:24.000 : en:14
01:20:18.000 : en:15
01:25:54.000 : en:16
01:30:37.000 : en:17
01:36:09.000 : en:18
01:43:20.000 : en:19
01:51:22.000 : en:20

Скриншоты


_________________
Показать сообщения:    

Текущее время: Сегодня 20:03

Часовой пояс: GMT



Вы не можете начинать темы
Вы не можете отвечать на сообщения
Вы не можете редактировать свои сообщения
Вы не можете удалять свои сообщения
Вы не можете голосовать в опросах
Вы не можете прикреплять файлы к сообщениям
Вы не можете скачивать файлы
Наши партнеры: интернет магазин Ивановского трикотажа textilla.ru