Ивановский Торрент трекер
Яндекс.Погода
 

[Цитировать]
HUNTER

Багажник / Sorte Nula
Страна: Португалия
Жанр: триллер, криминал
Год выпуска: 2004
Продолжительность: 01:21:25
Перевод: Одноголосый закадровый den904
Cубтитры: русские +tROXXY+
Оригинальная аудиодорожка: португальский
Режиссер: Фернандо Фрагата / Fernando Fragat
В ролях: Элдер Мендез, Антонио Фейо, Руй Унас, Изабель Фигуейра, Аделаида Суза, Таня Миллер, Бруно Ногейра, Карла Матадиньо, Педро Тейшейра, Зара Кирога
Описание: Альберто решил совершить романтический побег. Но прежде чем он сядет в самолет, он переживет самый жуткий день в своей жизни.
Доп. информация: Исходник предоставил edus67 большое спасибо.
Русские субтитры и дорожка взяты с этих раздач http://rutracker.org/forum/tracker.php?nm=Sorte%20Nula авторам большое спасибо.
При пересборе двд были использованы программы:
BeSweet в связке с BeLight – распаковка звука в формат WAV
Sony Vegas – кодирование в AC3
PgcDemux - разделение компонентов диска на файлы
Muxman - мультиплексирование и авторинг DVD
VobBlanker - реавторинг DVD

Скрин завершения проекта

Бонусы: Интервью, со сьёмочной площадки, клип
Сэмпл: http://sendfile.su/1086322
Тип релиза: DVD9 (Custom)
Контейнер: DVD-Video
Видео: PAL 16:9 (720x576) VBR Auto Pan&Scan
Аудио: Russian (Dolby AC3, 192 Кбит/сек, 2 ch)
Аудио 2: Portugues (Dolby AC3, 448 Кбит/сек, 6 ch)

DVDInfo

Size: 7.74 Gb ( 8 111 726 KBytes ) - DVD-9
Enabled regions: 1, 2, 3, 4, 5, 6, 7, 8
VTS_01 :
Play Length: 01:21:25
Video: PAL 16:9 (720x576) VBR, Auto Pan&Scan
Audio:
Russian (Dolby AC3, 2 ch)
Portugues (Dolby AC3, 6 ch)
Subtitles:
Russian
English
VTS_02 :
Play Length: 00:00:50+00:02:36+00:00:33+00:00:01
Video: PAL 16:9 (720x576) VBR, Auto Pan&Scan
Audio:
Portugues (Dolby AC3, 5 ch)
Subtitles:
Portugues
VTS_03 :
Play Length: 00:00:01+00:03:55+00:04:29+00:02:29+00:01:04+00:00:37+00:01:48+00:00:47+00:05:54+00:20:50+00:02:17
Video: PAL 16:9 (720x576) VBR, Auto Pan&Scan
Audio:
Portugues (Dolby AC3, 5 ch)
VTS_04 :
Play Length: 00:16:24
Video: PAL 16:9 (720x576) VBR, Auto Pan&Scan
Audio:
Portugues (Dolby AC3, 2 ch)
Menu Video:
PAL 4:3 (720x576) VBR
Menu Audio:
Not specified (Dolby AC3, 2 ch)
Menu Subtitles:
Not specified
Menu Portugues Language Unit :
Root Menu
Subpicture Menu
Audio Menu
Angle menu

MediaInfo

Общее
Полное имя : M:\Sorte Nula 2004\VIDEO_TS\VTS_01_1.VOB
Формат : MPEG-PS
Размер файла : 1024 Мбайт
Продолжительность : 18 м.
Режим общего битрейта : Переменный
Общий поток : 7718 Кбит/сек
Видео
Идентификатор : 224 (0xE0)
Формат : MPEG Video
Версия формата : Version 2
Профиль формата : Main@Main
Параметр BVOP формата : Да
Параметр матрицы формата : По умолчанию
Параметр GOP формата : M=3, N=15
Продолжительность : 18 м.
Вид битрейта : Переменный
Битрейт : 7000 Кбит/сек
Ширина : 720 пикселей
Высота : 576 пикселей
Соотношение сторон : 2,40:1
Частота кадров : 25,000 кадров/сек
Стандарт вещания : PAL
Цветовое пространство : YUV
Субдискретизация насыщенности : 4:2:0
Битовая глубина : 8 бит
Тип развёртки : Чересстрочная
Порядок развёртки : Нижнее поле первое
Метод сжатия : С потерями
Бит/(Пиксели*Кадры) : 0.675
Размер потока : 927 Мбайт (91%)
Аудио #1
Идентификатор : 189 (0xBD)-128 (0x80)
Формат : AC-3
Формат/Информация : Audio Coding 3
Расширение режима : CM (complete main)
Параметр Endianness формата : Big
Режим смешивания : DVD-Video
Продолжительность : 18 м.
Вид битрейта : Постоянный
Битрейт : 192 Кбит/сек
Каналы : 2 канала
Расположение каналов : Front: L R
Частота : 48,0 КГц
Битовая глубина : 16 бит
Метод сжатия : С потерями
Задержка видео : -80 мс.
Размер потока : 17,0 Мбайт (2%)
Аудио #2
Идентификатор : 189 (0xBD)-129 (0x81)
Формат : AC-3
Формат/Информация : Audio Coding 3
Расширение режима : CM (complete main)
Параметр Endianness формата : Big
Режим смешивания : DVD-Video
Продолжительность : 18 м.
Вид битрейта : Постоянный
Битрейт : 448 Кбит/сек
Каналы : 6 каналов
Расположение каналов : Front: L C R, Side: L R, LFE
Частота : 48,0 КГц
Битовая глубина : 16 бит
Метод сжатия : С потерями
Задержка видео : -80 мс.
Размер потока : 59,4 Мбайт (6%)
Меню

Скриншоты меню

Скриншоты



Показать сообщения:    

Текущее время: 12-Дек 22:02

Часовой пояс: UTC ± 0


Вы не можете начинать темы
Вы не можете отвечать на сообщения
Вы не можете редактировать свои сообщения
Вы не можете удалять свои сообщения
Вы не можете голосовать в опросах
Вы не можете прикреплять файлы к сообщениям
Вы не можете скачивать файлы

!ВНИМАНИЕ!
Сайт не предоставляет электронные версии произведений, а занимается лишь коллекционированием и каталогизацией ссылок, присылаемых и публикуемых на форуме нашими читателями. Если вы являетесь правообладателем какого-либо представленного материала и не желаете, чтобы ссылка на него находилась в нашем каталоге, свяжитесь с нами, и мы незамедлительно удалим ее. Файлы для обмена на трекере предоставлены пользователями сайта, и администрация не несет ответственности за их содержание. Просьба не заливать файлы, защищенные авторскими правами, а также файлы нелегального содержания!