Важное объявление!
У Нас Все раздачи мультитрекерные, при нуле пиров в релизах, можете смело вставать на закачку!
 
Автор Сообщение

HUNTER

Стаж:
4 года 6 месяцев
Сообщений:
60959

Репутация: 101

[+] [-]
Вне форума [Профиль] [ЛС]

А вот и чёрная колдунья! / Kuromajo-san ga Tooru!! / 黒魔女さんが通る!!Страна: Япония
Выпуск: c 04.04.2012 по 19.02.2014
Жанр: приключения, комедия, для детей
Тип/Продолжительность: ТВ (60 эп.), 7 мин.
Режиссёр: Ясуми Тэцуо
Автор оригинала: Исидзаки Хироси
Студия: -Субтитры:
  • русские, софтсаб, внешними файлами от Shojosei
    перевод: Sora_P3_Heaven; редактура: sys3x (1-34)
Озвучка:
  • двухголосая (жен./муж.), внешними файлами от Eladiel & Zendos (1-7) / Eladiel & Ray (8-28) (Anilibria)
-Описание:
Уважаемые любительницы загадочного и необъяснимого! Большая просьба перед началом магического ритуала убедиться в том, что вы не страдаете аллергией на потустороннее и не болеете банальной простудой. Все двери и окна во время сеанса должны быть закрыты. Заклинание призыва следует читать внятно, чётко, хорошо поставленным голосом. На посторонние мысли не отвлекаться... Вот следовала бы наша героиня Чоко этим простым советам, не попала бы в разэдакую историю. И пусть не жалуется теперь, что какая-то дамочка в чёрном балахоне поднимает ни свет ни заря и заставляет зубрить азы не абы какой, а чёрной колдовской науки.-Информационные ссылки: World Art || AniDB || MAL
-Качество: HDTVRip | Тип видео: Без хардсаба | Формат: MP4
Видео: 1280x720, 23.976 f/s, H.264, 8 bits, 1 182 Kb/s
Аудио JAP: 48.0 KHz, AAC, 2 channels, 224 Kb/s
Аудио RUS: 48.0 KHz, AAC, 2 channels, 224 Kb/s
-

Подробные тех. данные

ОбщееПолное имя : D:\[Flash-Ost]\Anime\А вот и чёрная колдунья! [Kuromajo-san ga Tooru!!]\[Silent-Raws] Kuromajo-san ga Tooru!! - 01v2 (NHK-E 1280x720 x264 AAC Chap).mp4Формат : MPEG-4Профиль формата : Base MediaИдентификатор кодека : isomРазмер файла : 70,4 МбайтПродолжительность : 7 м. 0 с.Общий поток : 1406 Кбит/секДата кодирования : UTC 2013-04-02 19:20:27Дата пометки : UTC 2013-04-02 19:20:27Программа кодирования : Yamb 2.1.0.0
ВидеоИдентификатор : 1Формат : AVCФормат/Информация : Advanced Video CodecПрофиль формата : High@L4.1Параметр CABAC формата : ДаПараметр ReFrames формата : 9 кадрыИдентификатор кодека : avc1Идентификатор кодека/Информация : Advanced Video CodingПродолжительность : 7 м. 0 с.Вид битрейта : ПеременныйБитрейт : 1182 Кбит/секМаксимальный битрейт : 6739 Кбит/секШирина : 1280 пикс.Высота : 720 пикс.Соотношение сторон : 16:9Режим частоты кадров : ПостоянныйЧастота кадров : 23,976 кадр/секЦветовое пространство : YUVПодвыборка цветности : 4:2:0Битовая глубина : 8 битТип развёртки : ПрогрессивнаяБит/(Пиксели*Кадры) : 0.053Размер потока : 59,2 Мбайт (84%)Библиотека кодирования : x264 core 129 r2230 1cffe9fНастройки программы : cabac=1 / ref=9 / deblock=1:0:0 / analyse=0x3:0x133 / me=umh / subme=10 / psy=1 / psy_rd=1.00:0.00 / mixed_ref=1 / me_range=24 / chroma_me=1 / trellis=2 / 8x8dct=1 / cqm=0 / deadzone=21,11 / fast_pskip=1 / chroma_qp_offset=-2 / threads=6 / lookahead_threads=1 / sliced_threads=0 / nr=0 / decimate=1 / interlaced=0 / bluray_compat=0 / constrained_intra=0 / bframes=8 / b_pyramid=2 / b_adapt=2 / b_bias=0 / direct=3 / weightb=1 / open_gop=0 / weightp=2 / keyint=250 / keyint_min=23 / scenecut=40 / intra_refresh=0 / rc_lookahead=60 / rc=crf / mbtree=1 / crf=18.0 / qcomp=0.60 / qpmin=0 / qpmax=69 / qpstep=4 / vbv_maxrate=20000 / vbv_bufsize=15000 / crf_max=0.0 / nal_hrd=none / ip_ratio=1.40 / aq=1:1.00Дата кодирования : UTC 2013-03-26 17:05:53Дата пометки : UTC 2013-04-02 19:20:27
АудиоИдентификатор : 2Формат : AACФормат/Информация : Advanced Audio CodecПрофиль формата : LCИдентификатор кодека : 40Продолжительность : 7 м. 0 с.Вид битрейта : ПеременныйБитрейт : 220 Кбит/секМаксимальный битрейт : 228 Кбит/секКанал(ы) : 2 канала(ов)Расположение каналов : Front: L RЧастота : 48,0 КГцМетод сжатия : С потерямиРазмер потока : 11,0 Мбайт (16%)Дата кодирования : UTC 2013-04-02 19:20:27Дата пометки : UTC 2013-04-02 19:20:27
Меню00:00:00.000 : Opening00:00:30.032 : A-part

Список эпизодов

1. School Ghost Stories vs The Black Witch
2. The Cycling Black Witch
3. The Black Witch is Super Popular
4. It's First Love, Black Witch
5. The Black Witch and the Great Kitty Cat Rebellion
6. The Black Witch Goes to Harajuku
7. The Black Witch and the Horror Field Trip
8. The Black Witch Fails at Love and Cooking
9. The Black Witch Exorcism Challenge
10. The Black Witch Appears on TV
11. Let's Mellow Out, Black Witch
12. The Black Witch's Cinderella (Part 1)
13. The Black Witch's Cinderella (Part 2)
14. The Black Witch Is a Big Sister? (Part 1)
15. The Black Witch Is a Big Sister? (Part 2)
16. The Black Witch's Class Visit
17. The Black Witch's Sports Day (Part 1)
18. The Black Witch's Sports Day (Part 2)
19. The Black Witch's Halloween (Part 1)
20. The Black Witch's Halloween (Part 2)
21. The Black Witch's Halloween (Part 3)
22. A Black Witch Walks a Mile in a Dog's Shoes
23. The Black Witch is Scared of Ghosts (Part 1)
24. The Black Witch is Scared of Ghosts (Part 2)
25. The Somber Library
26. The Balck Witch Wasn'y Built in a Day
27. Strange Confectionery Contest (Part 1)
28. Strange Confectionery Contest (Part 2)
29. A Sacrificial Ritual Held After School?!
30. Panicky Valentines's Day
31. The Graduation Album Smells Like the Occult (Part 1)
32. The Graduation Album Smells Like the Occult (Part 1)
33. The Black Witch and the Cherry Tree
34. The Black Witch's Stationery Shop
35. The Black Witch and Rakugo
36. The Black Witch's Quarrel Tempest
37. The Shrunk Black Witch
38. The Black Witch's Grandma
39. The Black Witch's Nightmare Contest
40. The Black Witch Likes Fortune-telling?!
41. The Black Witch Goes to the Spirit World (Part 1)
42. The Black Witch Goes to the Spirit World (Part 1)
43. The Black Witch and the Red String – 1
44. The Black Witch and the Red String – 2
45. The Black Witch and the Red String – 3
46. The Black Witch Isn't Good At Swimming?!
47. It's Animals, Black Witch

-

Отличия

От этой - большее количество серий.

_________________
Показать сообщения:    

Текущее время: Сегодня 14:13

Часовой пояс: GMT



Вы не можете начинать темы
Вы не можете отвечать на сообщения
Вы не можете редактировать свои сообщения
Вы не можете удалять свои сообщения
Вы не можете голосовать в опросах
Вы не можете прикреплять файлы к сообщениям
Вы не можете скачивать файлы
Наши партнеры: интернет магазин Ивановского трикотажа textilla.ru