Важное объявление!
У Нас Все раздачи мультитрекерные, при нуле пиров в релизах, можете смело вставать на закачку!
Статистика раздачи
Размер:     |    Зарегистрирован:     |    Скачан:     |   
Нет
 
     
 
 
Автор Сообщение

HUNTER

Стаж:
5 лет
Сообщений:
67947

Репутация: 101

[+] [-]
Вне форума [Профиль] [ЛС]

Африканец / L'Africain
Страна: Франция
Жанр: комедия, приключения
Год выпуска: 1983
Продолжительность: 01:40:50
Перевод: Профессиональный (дублированный)
Перевод 2: Профессиональный (многоголосый закадровый) R5
Cубтитры: русские, французские, английские
Оригинальная аудиодорожка: французский
Режиссер: Филипп де Брока / Philippe de Broca
В ролях: Катрин Денёв, Филипп Нуаре, Жан-Франсуа Бальмер, Жак Франсуа, Жан Бенгиги, Жозеф Момо, Вивиан Рид, Пьер Майкл, Гордон Хит, Рэймонд Акилон
Описание: Фильм снят в экзотических местах Африки, куда прилетает героиня фильма, чтобы изучить возможность строительства отеля для туристов. Там она встречает своего мужа, летчика, охраняющего заповедник от браконьеров.
Они расстались несколько лет назад, но так и не смогли забыть друг друга. Он делает все возможное, чтобы воспрепятствовать уничтожению этого нетронутого уголка природы. Нешуточное столкновение интересов, забавные приключения и настоящая опасность возрождают старую любовь с новой силой.


Автор рипа: Vikosol

Тип релиза: BDRip 720p
Контейнер: MKV
Видео: AVC, 1280x546 (2.35:1), 9977 kbps, 23,976 fps, 0,595 bpp
Аудио №1: русский / AC3 / 5.1 / 48 kHz / 384 kbps / 16 bit |Дубляж|
Аудио №2: русский / AC3 / 5.1 / 48 kHz / 384 kbps / 16 bit |Многоголосый закадровый, R5|
Аудио №3: украинский / AC3 / 2.0 / 48 kHz / 192 kbps / 16 bit |Многоголосый закадровый, 1+1|
Аудио №4: французский / DTS / 3 / 48 kHz / 1510 kbps / 16 bit
Аудио №5: французский / AC3 / 5.1 / 48 kHz / 384 kbps / 16 bit |DVD R5|
Навигация по главам: есть
Формат субтитров: softsub (SRT)

Информация

  • За работу над русскими дорогами большое спасибо kuku5hka.
  • Дубляж не полный. Имеются вставки многоголоски.
  • За "сирий" запис з каналу 1+1 висловлюємо подяку пані olgaya@hurtom.

Лог х264

Код:
x264 [info]: frame I:864   Avg QP:18.12  size:157199
x264 [info]: frame P:28878 Avg QP:19.59  size: 86651
x264 [info]: frame B:115313 Avg QP:20.94  size: 44255
x264 [info]: consecutive B-frames:  0.9%  1.1%  2.5% 27.5% 17.6% 34.6%  6.5%  6.6%  0.9%  1.4%  0.3%
x264 [info]: mb I  I16..4:  1.1% 83.2% 15.8%
x264 [info]: mb P  I16..4:  0.2% 22.3%  2.2%  P16..4: 25.9% 25.3% 21.9%  1.5%  0.4%    skip: 0.4%
x264 [info]: mb B  I16..4:  0.1%  4.3%  0.4%  B16..8: 36.7% 17.5%  9.6%  direct:17.9%  skip:13.6%  L0:38.5% L1:37.4% BI:24.1%
x264 [info]: 8x8 transform intra:89.6% inter:59.0%
x264 [info]: coded y,uvDC,uvAC intra: 96.1% 94.4% 83.6% inter: 68.8% 52.5% 20.6%
x264 [info]: i16 v,h,dc,p: 81%  5%  6%  9%
x264 [info]: i8 v,h,dc,ddl,ddr,vr,hd,vl,hu:  9% 10% 13%  9% 12% 11% 13% 10% 13%
x264 [info]: i4 v,h,dc,ddl,ddr,vr,hd,vl,hu: 39%  6%  4%  6%  9%  9% 10%  8% 10%
x264 [info]: i8c dc,h,v,p: 50% 18% 16% 16%
x264 [info]: Weighted P-Frames: Y:8.4% UV:5.6%
x264 [info]: ref P L0: 38.0% 14.3% 19.5%  6.7%  6.9%  4.2%  4.7%  2.5%  3.0%  0.3%  0.0%
x264 [info]: ref B L0: 76.3% 10.5%  4.7%  3.0%  2.1%  1.9%  1.0%  0.5%
x264 [info]: ref B L1: 95.0%  5.0%
x264 [info]: kb/s:10236.50
x264 [total]: encoded 145055 frames, 2.936 fps, 10236.50 kb/s, 7382.7 MB

MediaInfo

Код:
Format                           : Matroska
Format version                   : Version 4 / Version 2
File size                        : 9.22 GiB
Duration                         : 1h 40mn
Overall bit rate                 : 13.1 Mbps
Encoded date                     : UTC 2014-10-30 16:13:26
Writing application              : mkvmerge v6.8.0 ('Theme for Great Cities') 64bit built on Mar  2 2014 21:34:26
Writing library                  : libebml v1.3.0 + libmatroska v1.4.1
Video
ID                               : 1
Format                           : AVC
Format/Info                      : Advanced Video Codec
Format profile                   : High@L4.1
Format settings, CABAC           : Yes
Format settings, ReFrames        : 9 frames
Codec ID                         : V_MPEG4/ISO/AVC
Duration                         : 1h 40mn
Bit rate                         : 9 978 Kbps
Width                            : 1 280 pixels
Height                           : 546 pixels
Display aspect ratio             : 2.35:1
Frame rate                       : 23.976 fps
Color space                      : YUV
Chroma subsampling               : 4:2:0
Bit depth                        : 8 bits
Scan type                        : Progressive
Bits/(Pixel*Frame)               : 0.595
Stream size                      : 7.03 GiB (76%)
Title                            : Encode by Vikosol
Writing library                  : x264 core 142 r2409+42 04be48a tMod [8-bit@all X86_64]
Encoding settings                : cabac=1 / ref=9 / deblock=1:-3:-3 / analyse=0x3:0x133 / me=esa / subme=10 / psy=1 / fade_compensate=0.00 / psy_rd=1.00:0.00 / mixed_ref=1 / me_range=32 / chroma_me=1 / trellis=2 / 8x8dct=1 / cqm=0 / deadzone=21,11 / fast_pskip=0 / chroma_qp_offset=-2 / threads=6 / lookahead_threads=1 / sliced_threads=0 / nr=0 / decimate=0 / interlaced=0 / bluray_compat=0 / constrained_intra=0 / fgo=0 / bframes=10 / b_pyramid=2 / b_adapt=2 / b_bias=0 / direct=1 / weightb=1 / open_gop=0 / weightp=2 / keyint=250 / keyint_min=23 / scenecut=40 / intra_refresh=0 / rc_lookahead=60 / rc=crf / mbtree=0 / crf=16.8000 / qcomp=0.65 / qpmin=0:0:0 / qpmax=69:69:69 / qpstep=4 / vbv_maxrate=50000 / vbv_bufsize=62500 / crf_max=0.0 / nal_hrd=none / filler=0 / ip_ratio=1.30 / pb_ratio=1.20 / aq=1:0.60 / aq-sensitivity=10.00 / aq-factor=1.00:1.00:1.00 / aq2=0 / aq3=0
Language                         : English
Matrix coefficients              : BT.709
Audio #1
ID                               : 2
Format                           : AC-3
Format/Info                      : Audio Coding 3
Mode extension                   : CM (complete main)
Codec ID                         : A_AC3
Duration                         : 1h 40mn
Bit rate mode                    : Constant
Bit rate                         : 384 Kbps
Channel(s)                       : 6 channels
Channel positions                : Front: L C R, Side: L R, LFE
Sampling rate                    : 48.0 KHz
Bit depth                        : 16 bits
Compression mode                 : Lossy
Stream size                      : 277 MiB (3%)
Title                            : Дубляж
Language                         : Russian
Audio #2
ID                               : 3
Format                           : AC-3
Format/Info                      : Audio Coding 3
Mode extension                   : CM (complete main)
Codec ID                         : A_AC3
Duration                         : 1h 40mn
Bit rate mode                    : Constant
Bit rate                         : 384 Kbps
Channel(s)                       : 6 channels
Channel positions                : Front: L C R, Side: L R, LFE
Sampling rate                    : 48.0 KHz
Bit depth                        : 16 bits
Compression mode                 : Lossy
Stream size                      : 277 MiB (3%)
Title                            : Многоголосый закадровый, R5
Language                         : Russian
Audio #3
ID                               : 4
Format                           : AC-3
Format/Info                      : Audio Coding 3
Mode extension                   : CM (complete main)
Codec ID                         : A_AC3
Duration                         : 1h 40mn
Bit rate mode                    : Constant
Bit rate                         : 192 Kbps
Channel(s)                       : 2 channels
Channel positions                : Front: L R
Sampling rate                    : 48.0 KHz
Bit depth                        : 16 bits
Compression mode                 : Lossy
Stream size                      : 138 MiB (1%)
Language                         : Ukrainian
Audio #4
ID                               : 5
Format                           : DTS
Format/Info                      : Digital Theater Systems
Codec ID                         : A_DTS
Duration                         : 1h 40mn
Bit rate mode                    : Constant
Bit rate                         : 1 510 Kbps
Channel(s)                       : 3 channels
Channel positions                : Front: L C R
Sampling rate                    : 48.0 KHz
Bit depth                        : 16 bits
Compression mode                 : Lossy
Stream size                      : 1.06 GiB (12%)
Language                         : French
Audio #5
ID                               : 6
Format                           : AC-3
Format/Info                      : Audio Coding 3
Mode extension                   : CM (complete main)
Codec ID                         : A_AC3
Duration                         : 1h 40mn
Bit rate mode                    : Constant
Bit rate                         : 384 Kbps
Channel(s)                       : 6 channels
Channel positions                : Front: L C R, Side: L R, LFE
Sampling rate                    : 48.0 KHz
Bit depth                        : 16 bits
Compression mode                 : Lossy
Stream size                      : 277 MiB (3%)
Title                            : DVD R5
Language                         : French
Text #1
ID                               : 7
Format                           : UTF-8
Codec ID                         : S_TEXT/UTF8
Codec ID/Info                    : UTF-8 Plain Text
Language                         : Russian
Text #2
ID                               : 8
Format                           : UTF-8
Codec ID                         : S_TEXT/UTF8
Codec ID/Info                    : UTF-8 Plain Text
Language                         : French
Text #3
ID                               : 9
Format                           : UTF-8
Codec ID                         : S_TEXT/UTF8
Codec ID/Info                    : UTF-8 Plain Text
Language                         : English
Menu
00:00:00.000                     : en:Chapter 01
00:06:52.452                     : en:Chapter 02
00:11:59.509                     : en:Chapter 03
00:15:36.225                     : en:Chapter 04
00:21:45.804                     : en:Chapter 05
00:27:08.335                     : en:Chapter 06
00:37:22.404                     : en:Chapter 07
00:46:47.304                     : en:Chapter 08
00:56:02.399                     : en:Chapter 09
01:03:54.329                     : en:Chapter 10
01:12:19.376                     : en:Chapter 11
01:16:59.530                     : en:Chapter 12
01:20:51.805                     : en:Chapter 13
01:28:13.121                     : en:Chapter 14
01:35:23.926                     : en:Chapter 15
01:38:57.014                     : en:Chapter 16

Скриншоты

Source vs Encode





_________________
Показать сообщения:    

Текущее время: Сегодня 10:50

Часовой пояс: GMT



Вы не можете начинать темы
Вы не можете отвечать на сообщения
Вы не можете редактировать свои сообщения
Вы не можете удалять свои сообщения
Вы не можете голосовать в опросах
Вы не можете прикреплять файлы к сообщениям
Вы не можете скачивать файлы