Важное объявление!
У Нас Все раздачи мультитрекерные, при нуле пиров в релизах, можете смело вставать на закачку!
Статистика раздачи
Размер:     |    Зарегистрирован:     |    Скачан:     |   
Нет
 
     
 
 
Автор Сообщение

HUNTER

Стаж:
5 лет
Сообщений:
67947

Репутация: 101

[+] [-]
Вне форума [Профиль] [ЛС]

Аттила-завоеватель / Attila
Страна: США, Литва
Жанр: боевик, драма, приключения, военный, исторический
Год выпуска: 2001
Продолжительность: 02:54:51
Перевод#1: Профессиональный (многоголосый закадровый) | R5
Перевод#2: Профессиональный (многоголосый закадровый)
Cубтитры: русские (King of Holland), английские
Оригинальная аудиодорожка: английский
Режиссер: Дик Лаури / Dick Lowry
В ролях: Джерард Батлер, Пауэрс Бут, Симон Маккинон, Рег Роджерс, Элис Крайдж, Полин Линч, Стивен Беркофф, Эндрю Плевин, Томми Флэнаган, Кирсти Митчел
Описание: Древние пророчества гласили, что однажды появится человек, который сможет объединить племена свирепых воинов и бросить вызов непобедимой Римской Империи, которая веками правила античным миром.
Имя этого человека стало легендарным и навсегда вошло в историю человечества: Аттила - бесстрашный повелитель гуннов. Фильм повествует о противостоянии двух самых могущественных людей своего времени и их армий - непокорного Аттилы и прославленного римского генерала Флавия...

Доп. информация: за работу над дорогами благодарим Linger babe
Исходник: Attila 2001 1080p GER Blu-ray AVC DTS-HD MA 5.1-iFPD @ HDBits
Тип релиза: BDRemux 1080p | sample
Контейнер: MKV
Видео: MPEG-4 AVC Video / 21993 kbps / 1080p / 23.976 fps / 16:9 / High Profile 4.1
Аудио #1: Russian AC3 2ch 48kHz 192Kbps | MVO R5
Аудио #2: Russian AC3 2ch 48kHz 192Kbps | MVO
Аудио #3: English DTS-HD MA / 5.1 / 48 kHz / 1818 kbps / 16-bit (DTS Core: 5.1 / 48 kHz / 768 kbps / 16-bit) | Original
Формат субтитров: softsub (SRT)
Главы: есть

MediaInfo

General
Complete name : D:\...\Attila.2001.1080p.Remux.AVC.2xRus.Eng.mkv
Format : Matroska
Format version : Version 2
File size : 29.6 GiB
Duration : 2h 54mn
Overall bit rate mode : Variable
Overall bit rate : 24.2 Mbps
Movie name : Attila.2001.1080p.Remux.AVC.2xRus.Eng
Encoded date : UTC 2014-08-09 16:43:37
Writing application : mkvmerge v7.0.0 ('Where We Going') 64bit built on Jun 9 2014 15:16:27
Writing library : libebml v1.3.0 + libmatroska v1.4.1
Video
ID : 1
Format : AVC
Format/Info : Advanced Video Codec
Format profile : High@L4.1
Format settings, CABAC : Yes
Format settings, ReFrames : 4 frames
Codec ID : V_MPEG4/ISO/AVC
Duration : 2h 54mn
Bit rate mode : Variable
Bit rate : 22.5 Mbps
Maximum bit rate : 35.0 Mbps
Width : 1 920 pixels
Height : 1 080 pixels
Display aspect ratio : 16:9
Frame rate mode : Constant
Frame rate : 23.976 fps
Standard : NTSC
Color space : YUV
Chroma subsampling : 4:2:0
Bit depth : 8 bits
Scan type : Progressive
Bits/(Pixel*Frame) : 0.453
Stream size : 27.5 GiB (93%)
Title : Attila (2001)
Language : English
Default : Yes
Forced : No
Color primaries : BT.709
Transfer characteristics : BT.709
Matrix coefficients : BT.709
Audio #1
ID : 2
Format : AC-3
Format/Info : Audio Coding 3
Mode extension : CM (complete main)
Format settings, Endianness : Big
Codec ID : A_AC3
Duration : 2h 54mn
Bit rate mode : Constant
Bit rate : 192 Kbps
Channel(s) : 2 channels
Channel positions : Front: L R
Sampling rate : 48.0 KHz
Bit depth : 16 bits
Compression mode : Lossy
Stream size : 240 MiB (1%)
Title : MVO R5
Language : Russian
Default : Yes
Forced : No
Audio #2
ID : 3
Format : AC-3
Format/Info : Audio Coding 3
Mode extension : CM (complete main)
Format settings, Endianness : Big
Codec ID : A_AC3
Duration : 2h 54mn
Bit rate mode : Constant
Bit rate : 192 Kbps
Channel(s) : 2 channels
Channel positions : Front: L R
Sampling rate : 48.0 KHz
Bit depth : 16 bits
Compression mode : Lossy
Stream size : 240 MiB (1%)
Title : MVO
Language : Russian
Default : No
Forced : No
Audio #3
ID : 4
Format : DTS
Format/Info : Digital Theater Systems
Format profile : MA / Core
Codec ID : A_DTS
Duration : 2h 54mn
Bit rate mode : Variable
Bit rate : 821 Kbps / 755 Kbps
Channel(s) : 6 channels
Channel positions : Front: L C R, Side: L R, LFE
Sampling rate : 48.0 KHz
Bit depth : 16 bits
Compression mode : Lossless / Lossy
Title : Original
Language : English
Default : No
Forced : No
Text #1
ID : 5
Format : UTF-8
Codec ID : S_TEXT/UTF8
Codec ID/Info : UTF-8 Plain Text
Title : King of Holland
Language : Russian
Default : No
Forced : No
Text #2
ID : 6
Format : UTF-8
Codec ID : S_TEXT/UTF8
Codec ID/Info : UTF-8 Plain Text
Language : English
Default : No
Forced : No
Menu
00:00:00.000 : en:00:00:00.000
00:14:04.469 : en:00:14:04.469
00:29:21.885 : en:00:29:21.885
00:42:07.275 : en:00:42:07.275
00:56:45.402 : en:00:56:45.402
01:11:57.480 : en:01:11:57.480
01:27:56.021 : en:01:27:56.021
01:40:10.338 : en:01:40:10.338
01:56:29.149 : en:01:56:29.149
02:08:33.664 : en:02:08:33.664
02:24:29.619 : en:02:24:29.619
02:39:29.435 : en:02:39:29.435

Скриншоты



_________________
Показать сообщения:    

Текущее время: Сегодня 14:56

Часовой пояс: GMT



Вы не можете начинать темы
Вы не можете отвечать на сообщения
Вы не можете редактировать свои сообщения
Вы не можете удалять свои сообщения
Вы не можете голосовать в опросах
Вы не можете прикреплять файлы к сообщениям
Вы не можете скачивать файлы