Важное объявление!
У Нас Все раздачи мультитрекерные, при нуле пиров в релизах, можете смело вставать на закачку!
 
Автор Сообщение

HUNTER

Стаж:
4 года 6 месяцев
Сообщений:
60899

Репутация: 101

[+] [-]
Вне форума [Профиль] [ЛС]

Атлас Дискавери: Италия
Discovery Atlas: Italy Revealed
Год выпуска: 2006
Страна: США
Жанр: Документальный, География
Продолжительность: 01:40:53
Перевод: Профессиональный (двухголосый закадровый)
Русские субтитры: нет-Режиссер: Майкл Линч / Michael Lynch-Описание: Италия - земля яркого солнца, страстных людей и безудержного веселья. Земля цезарей и римских пап. Земля вдохновения и красоты. Италия - это культура, искусство возрождения, непревзойденная скульптура и архитектура. Рим, Венеция, Флоренция...
Современная Италия XXI века, где прошлое и настоящее, сталкиваясь друг с другом создают будущее. Известный на весь мир завод Феррари в Маранелло, модные ателье Рима и многое другое. Две с половиной тысячи лет исторического наследия, живущие в каждом итальянском сердце, ждут всех желающих окунутся в атмосферу непревзойденной Италии - королевы истинного праздника стиля.
Ведущая программы - актриса Изабелла Росселлини - дочь знаменитого режиссера Роберто Росселлини и актрисы Ингрид Бергман.- -Качество: BDRip-AVC
Формат: MKV
Видео: MPEG-4|AVC|x264|1024x576 (16:9), 29.970 fps, ~1732 kbps avg, 0.098 bit/pixel
Аудио: 48.0 kHz, AC3 Dolby Digital, 2/0 (L,R) ch, ~192.00 kbps avg

MediaInfo

ОбщееУникальный идентификатор : 232475990667783080261444686599802976944 (0xAEE53F470BA0C0EBB08B768BE395FAB0)Полное имя : A:\Фильмы\Discovery.Atlas.Italy.Revealed.2006.x264.BDRip.(AVC).mkvФормат : MatroskaВерсия формата : Version 2Размер файла : 1,37 ГбайтПродолжительность : 1 ч. 40 м.Общий поток : 1939 Кбит/секДата кодирования : UTC 2012-05-12 09:55:07Программа кодирования : mkvmerge v5.0.1 ('Es ist Sommer') built on Nov 6 2011 16:23:40Библиотека кодирования : libebml v1.2.2 + libmatroska v1.3.0
ВидеоИдентификатор : 1Формат : AVCФормат/Информация : Advanced Video CodecПрофиль формата : High@L3.2Параметр CABAC формата : ДаПараметр ReFrames формата : 8 кадровИдентификатор кодека : V_MPEG4/ISO/AVCПродолжительность : 1 ч. 40 м.Битрейт : 1732 Кбит/секШирина : 1024 пикселяВысота : 576 пикселейСоотношение сторон : 16:9Режим частоты кадров : ПостоянныйЧастота кадров : 29,970 кадров/секЦветовое пространство : YUVСубдискретизация насыщенности : 4:2:0Битовая глубина : 8 битТип развёртки : ПрогрессивнаяБит/(Пиксели*Кадры) : 0.098Размер потока : 1,20 Гбайт (88%)Библиотека кодирования : x264 core 119 r2106 07efeb4Настройки программы : cabac=1 / ref=8 / deblock=1:-1:-1 / analyse=0x3:0x133 / me=umh / subme=7 / psy=1 / psy_rd=1.00:0.10 / mixed_ref=1 / me_range=16 / chroma_me=1 / trellis=2 / 8x8dct=1 / cqm=0 / deadzone=21,11 / fast_pskip=0 / chroma_qp_offset=-3 / threads=3 / sliced_threads=0 / nr=0 / decimate=1 / interlaced=0 / bluray_compat=0 / constrained_intra=0 / bframes=3 / b_pyramid=2 / b_adapt=2 / b_bias=0 / direct=1 / weightb=1 / open_gop=0 / weightp=2 / keyint=250 / keyint_min=25 / scenecut=40 / intra_refresh=0 / rc_lookahead=50 / rc=abr / mbtree=1 / bitrate=1732 / ratetol=1.0 / qcomp=0.60 / qpmin=0 / qpmax=69 / qpstep=4 / ip_ratio=1.40 / aq=1:1.00Default : ДаForced : Нет
АудиоИдентификатор : 2Формат : AC-3Формат/Информация : Audio Coding 3Расширение режима : CM (complete main)Параметр Endianness формата : BigИдентификатор кодека : A_AC3Продолжительность : 1 ч. 40 м.Вид битрейта : ПостоянныйБитрейт : 192 Кбит/секКаналы : 2 каналаРасположение каналов : Front: L RЧастота : 48,0 КГцБитовая глубина : 16 битМетод сжатия : С потерямиРазмер потока : 139 Мбайт (10%)Default : ДаForced : Нет

Скриншоты



_________________
Показать сообщения:    

Текущее время: Сегодня 23:39

Часовой пояс: GMT



Вы не можете начинать темы
Вы не можете отвечать на сообщения
Вы не можете редактировать свои сообщения
Вы не можете удалять свои сообщения
Вы не можете голосовать в опросах
Вы не можете прикреплять файлы к сообщениям
Вы не можете скачивать файлы
Наши партнеры: интернет магазин Ивановского трикотажа textilla.ru