Важное объявление!
У Нас Все раздачи мультитрекерные, при нуле пиров в релизах, можете смело вставать на закачку!
 
Автор Сообщение

HUNTER

Стаж:
4 года 7 месяцев
Сообщений:
61590

Репутация: 101

[+] [-]
Вне форума [Профиль] [ЛС]


Атлантида 2: Возвращение Майло
Atlantis: Milo's Return
-

  • Год производства: 2003

  • Страна: USA

  • Жанр: мультфильм, фантастика, приключения, семейный

  • Продолжительность: 01:35:43

  • Перевод#1: Профессиональный (полное дублирование)

  • Перевод#2: Профессиональный (многоголосый, закадровый)

  • Субтитры: Отсутствуют-
  • Режиссер: Виктор Кук / Victor Cook, Тоби Шелтон / Toby Shelton, Тэд Стоунс / Tad Stones
    -
  • Описание: Мийло, Кида и команда смелых исследователей Атлантиды возвращаются в новых приключениях, полных ожидания и действия. В течение первой экспедиции Майло и Кида открыли подводное царство, а так же спасли его и всех его обитателей. Теперь опасность подкралась с поверхности воды и отважным героям придется покинуть Атлантиду...
    -
  • Качество видео: BDRip 1080p

  • Формат видео: mkv

  • Видео кодек: H264

  • Аудио кодек: AC3

  • Видео: 1824x816 (2.35:1), 23.976 fps, 7 867 Kbps, 0.153 bit/pixel

  • Аудио#1: 48 kHz, AC3 1 ch ~192 kbps avg |Профессиональный (полное дублирование)|

  • Аудио#2: 48 kHz, AC3 6 ch ~448 kbps avg |Профессиональный (многоголосый, закадровый)|-
  • Автор рипа: falco
-

Доп. информация

Скриншоты

MediaInfo

Код: copyText_writeLink('this.parentNode.parentNode.nextSibling.nextSibling');
General
Unique ID : 239015223936980643546564217006590635311 (0xB3D0A85EAA1ABB519770147A5139AD2F)
Complete name : D:\Торенты\Atlantis.Milo's.Return.2003.BDRip.1080p.falco.mkv
Format : Matroska
Format version : Version 4 / Version 2
File size : 4.42 GiB
Duration : 1h 20mn
Overall bit rate : 7 867 Kbps
Encoded date : UTC 2013-08-03 10:56:49
Writing application : mkvmerge v6.3.0 ('You can't stop me!') built on Jun 28 2013 20:09:41
Writing library : libebml v1.3.0 + libmatroska v1.4.0
Video
ID : 1
Format : AVC
Format/Info : Advanced Video Codec
Format profile : [url=mailto:High@L4.1]High@L4.1[/url]
Format settings, CABAC : Yes
Format settings, ReFrames : 4 frames
Codec ID : V_MPEG4/ISO/AVC
Duration : 1h 20mn
Bit rate : 7 233 Kbps
Width : 1 824 pixels
Height : 1 080 pixels
Display aspect ratio : 1.689
Frame rate : 23.976 fps
Color space : YUV
Chroma subsampling : 4:2:0
Bit depth : 8 bits
Scan type : Progressive
Bits/(Pixel*Frame) : 0.153
Stream size : 3.97 GiB (90%)
Writing library : x264 core 130 r2273 b3065e6
Encoding settings : cabac=1 / ref=4 / deblock=1:-1:-1 / analyse=0x3:0x113 / me=umh / subme=7 / psy=1 / psy_rd=1.00:0.20 / mixed_ref=1 / me_range=16 / chroma_me=1 / trellis=2 / 8x8dct=1 / cqm=0 / deadzone=21,11 / fast_pskip=0 / chroma_qp_offset=-3 / threads=6 / lookahead_threads=1 / sliced_threads=0 / nr=0 / decimate=0 / interlaced=0 / bluray_compat=0 / constrained_intra=0 / bframes=3 / b_pyramid=2 / b_adapt=2 / b_bias=0 / direct=3 / weightb=1 / open_gop=0 / weightp=2 / keyint=250 / keyint_min=23 / scenecut=40 / intra_refresh=0 / rc_lookahead=50 / rc=2pass / mbtree=1 / bitrate=7233 / ratetol=1.0 / qcomp=0.60 / qpmin=0 / qpmax=69 / qpstep=4 / cplxblur=20.0 / qblur=0.5 / vbv_maxrate=50000 / vbv_bufsize=50000 / nal_hrd=none / ip_ratio=1.40 / aq=1:1.00
Default : Yes
Forced : No
Audio #1
ID : 2
Format : AC-3
Format/Info : Audio Coding 3
Mode extension : CM (complete main)
Format settings, Endianness : Big
Codec ID : A_AC3
Duration : 1h 20mn
Bit rate mode : Constant
Bit rate : 192 Kbps
Channel(s) : 1 channel
Channel positions : Front: C
Sampling rate : 48.0 KHz
Bit depth : 16 bits
Compression mode : Lossy
Stream size : 110 MiB (2%)
Title : Профессиональный (полное дублирование)
Language : Russian
Default : Yes
Forced : No
Audio #2
ID : 3
Format : AC-3
Format/Info : Audio Coding 3
Mode extension : CM (complete main)
Format settings, Endianness : Big
Codec ID : A_AC3
Duration : 1h 20mn
Bit rate mode : Constant
Bit rate : 448 Kbps
Channel(s) : 6 channels
Channel positions : Front: L C R, Side: L R, LFE
Sampling rate : 48.0 KHz
Bit depth : 16 bits
Compression mode : Lossy
Stream size : 258 MiB (6%)
Title : Профессиональный (многоголосый, закадровый)
Language : Russian
Default : No
Forced : No

_________________
Показать сообщения:    

Текущее время: Сегодня 14:43

Часовой пояс: GMT



Вы не можете начинать темы
Вы не можете отвечать на сообщения
Вы не можете редактировать свои сообщения
Вы не можете удалять свои сообщения
Вы не можете голосовать в опросах
Вы не можете прикреплять файлы к сообщениям
Вы не можете скачивать файлы
Наши партнеры: интернет магазин Ивановского трикотажа textilla.ru