Ивановский Торрент трекер
Яндекс.Погода
 

[Цитировать]
HUNTER


Атлантида: Затерянный мир
Atlantis: The Lost Empire
-

  • Год производства: 2001

  • Страна: USA

  • Жанр: мультфильм, фантастика, приключения, семейный

  • Продолжительность: 01:35:43

  • Перевод#1: Профессиональный (полное дублирование)

  • Перевод#2: Профессиональный (многоголосый, закадровый)

  • Субтитры: Отсутствуют-
  • Режиссер: Гари Труздейл / Gary Trousdale, Кирк Уайз / Kirk Wise
    -
  • Описание: Атлантида... Мечтою найти легендарный затонувший в пучинах океана остров грезили многие смельчаки. Но только юному картографу Майло Тэтчу повезло: в 1914 году в его руки попал таинственный дневник, указывающий путь к Затерянной империи. И вот уже самая могучая подводная лодка в мире под командованием неустрашимого капитана Рурка выходит в открытый океан.
    Майло и его спутников ждет множество незабываемых приключений, превосходящих все похождения капитана Немо: схватка с морским чудовищем, древние загадки, буйство стихий, мистические силы и даже встреча с цивилизацией атлантов! И это лишь малая толика того, что ждет героев на их пути к тайнам великой Атлантиды.
    -
  • Качество видео: BDRip 1080p

  • Формат видео: mkv

  • Видео кодек: H264

  • Аудио кодек: AC3

  • Видео: 1920x816 (2.35:1), 23.976 fps, 7 867 Kbps, 0.208 bit/pixel

  • Аудио#1: 48 kHz, AC3 6 ch ~384 kbps avg |Профессиональный (полное дублирование)|

  • Аудио#2: 48 kHz, DTS 6 ch ~1510 kbps avg |Профессиональный (многоголосый, закадровый)|-
  • Автор рипа: falco
-

Доп. информация

Скриншоты

MediaInfo

Код: copyText_writeLink('this.parentNode.parentNode.nextSibling.nextSibling');
General
Unique ID : 207529446849309443757430304907467451268 (0x9C20B7B4D332C8F0B7F4973509486B84)
Complete name : D:\Торенты\Atlantis.The.Lost.Empire.2001.BDRip.1080p.falco.mkv
Format : Matroska
Format version : Version 4 / Version 2
File size : 6.97 GiB
Duration : 1h 35mn
Overall bit rate mode : Variable
Overall bit rate : 10.4 Mbps
Encoded date : UTC 2013-08-03 11:14:22
Writing application : mkvmerge v6.3.0 ('You can't stop me!') built on Jun 28 2013 20:09:41
Writing library : libebml v1.3.0 + libmatroska v1.4.0
Video
ID : 1
Format : AVC
Format/Info : Advanced Video Codec
Format profile : High@L4.1
Format settings, CABAC : Yes
Format settings, ReFrames : 4 frames
Codec ID : V_MPEG4/ISO/AVC
Duration : 1h 35mn
Bit rate : 7 805 Kbps
Nominal bit rate : 6 015 Kbps
Width : 1 920 pixels
Height : 816 pixels
Display aspect ratio : 2.35:1
Frame rate : 23.976 fps
Color space : YUV
Chroma subsampling : 4:2:0
Bit depth : 8 bits
Scan type : Progressive
Bits/(Pixel*Frame) : 0.208
Stream size : 5.22 GiB (75%)
Writing library : x264 core 130 r2273 b3065e6
Encoding settings : cabac=1 / ref=4 / deblock=1:-1:-1 / analyse=0x3:0x113 / me=umh / subme=7 / psy=1 / psy_rd=1.00:0.20 / mixed_ref=1 / me_range=16 / chroma_me=1 / trellis=2 / 8x8dct=1 / cqm=0 / deadzone=21,11 / fast_pskip=0 / chroma_qp_offset=-3 / threads=6 / lookahead_threads=1 / sliced_threads=0 / nr=0 / decimate=0 / interlaced=0 / bluray_compat=0 / constrained_intra=0 / bframes=3 / b_pyramid=2 / b_adapt=2 / b_bias=0 / direct=3 / weightb=1 / open_gop=0 / weightp=2 / keyint=250 / keyint_min=23 / scenecut=40 / intra_refresh=0 / rc_lookahead=50 / rc=2pass / mbtree=1 / bitrate=6015 / ratetol=1.0 / qcomp=0.60 / qpmin=0 / qpmax=69 / qpstep=4 / cplxblur=20.0 / qblur=0.5 / vbv_maxrate=50000 / vbv_bufsize=50000 / nal_hrd=none / ip_ratio=1.40 / aq=1:1.00
Default : Yes
Forced : No
Audio #1
ID : 2
Format : AC-3
Format/Info : Audio Coding 3
Mode extension : CM (complete main)
Format settings, Endianness : Big
Codec ID : A_AC3
Duration : 1h 35mn
Bit rate mode : Constant
Bit rate : 384 Kbps
Channel(s) : 6 channels
Channel positions : Front: L C R, Side: L R, LFE
Sampling rate : 48.0 KHz
Bit depth : 16 bits
Compression mode : Lossy
Stream size : 263 MiB (4%)
Title : Профессиональный (полное дублирование)
Language : Russian
Default : Yes
Forced : No
Audio #2
ID : 3
Format : DTS
Format/Info : Digital Theater Systems
Format profile : MA / Core
Codec ID : A_DTS
Duration : 1h 35mn
Bit rate mode : Variable
Bit rate : 2 023 Kbps / 1 510 Kbps
Channel(s) : 6 channels
Channel positions : Front: L C R, Side: L R, LFE
Sampling rate : 48.0 KHz
Bit depth : 24 bits
Compression mode : Lossless / Lossy
Title : Профессиональный (многоголосый, закадровый)
Language : Russian
Default : No
Forced : No


Показать сообщения:    

Текущее время: 13-Дек 11:17

Часовой пояс: UTC ± 0


Вы не можете начинать темы
Вы не можете отвечать на сообщения
Вы не можете редактировать свои сообщения
Вы не можете удалять свои сообщения
Вы не можете голосовать в опросах
Вы не можете прикреплять файлы к сообщениям
Вы не можете скачивать файлы

!ВНИМАНИЕ!
Сайт не предоставляет электронные версии произведений, а занимается лишь коллекционированием и каталогизацией ссылок, присылаемых и публикуемых на форуме нашими читателями. Если вы являетесь правообладателем какого-либо представленного материала и не желаете, чтобы ссылка на него находилась в нашем каталоге, свяжитесь с нами, и мы незамедлительно удалим ее. Файлы для обмена на трекере предоставлены пользователями сайта, и администрация не несет ответственности за их содержание. Просьба не заливать файлы, защищенные авторскими правами, а также файлы нелегального содержания!