Ивановский Торрент трекер
Яндекс.Погода
 

[Цитировать]
HUNTER

Атлантида: Затерянный мир / Atlantis: The Lost Empire- Год выпуска: 2001
Выпущено: США
Жанр: мультфильм, фантастика, приключения, семейный
Продолжительность: 01:35:43
Перевод: Профессиональный (полное дублирование)
+ Оригинальная звуковая дорожка (отдельно)
Субтитры: Русские (полные, форсированные), английские (полные, SDH) (внешние srt*) (спасибо yaroslaigor)-Режиссер: Гари Труздейл / Gary Trousdale, Кирк Уайз / Kirk Wise
Роли озвучивали: Майкл Дж. Фокс, Кори Бертон, Клаудия Кристиан, Джеймс Гарнер, Джон Махони, Фил Моррис, Леонард Нимой, Дон Новелло, Жаклин Обрадорс, Флоренс Стэнли
О фильме: Атлантида… Мечтою найти легендарный затонувший в пучинах океана остров грезили многие смельчаки. Но только юному картографу Майло Тэтчу повезло: в 1914 году в его руки попал таинственный дневник, указывающий путь к Затерянной империи. И вот уже самая могучая подводная лодка в мире под командованием неустрашимого капитана Рурка выходит в открытый океан.
Майло и его спутников ждет множество незабываемых приключений, превосходящих все похождения капитана Немо: схватка с морским чудовищем, древние загадки, буйство стихий, мистические силы и даже встреча с цивилизацией атлантов! И это лишь малая толика того, что ждет героев на их пути к тайнам великой Атлантиды.
Релиз:
Автор: kingsize87
Качество: BDRip (источник: / Blu-ray / 1080р)
Формат: AVI
Видео: 720x304 (2.37:1), 23,976 fps, XviD build 65 ~1779 kbps avg, 0.34 bit/pixel
Аудио #1: 48 kHz, AC3 Dolby Digital, 3/2 (L,C,R,l,r) + LFE ch, ~384.00 kbps avg
Аудио #2: 48 kHz, AC3 Dolby Digital, 3/2 (L,C,R,l,r) + LFE ch, ~384.00 kbps avg (отдельно)
Размер: 1487.46 Mb (1/3 DVD-R)- -

Mi


Формат : AVI
Формат/Информация : Audio Video Interleave
Размер файла : 1,45 Гбайт
Продолжительность : 1 ч. 35 м.
Общий поток : 2172 Кбит/сек
Название фильма : Атлантида: Затерянный мир / Atlantis: The Lost Empire (2001) BDRip
Режиссёр : kingsize87
Программа кодирования : VirtualDubMod 1.5.10.2 (build 2540/release)
Правообладатель : HQCLUB
Примечание : 25.08.2013
Видео
Идентификатор : 0
Формат : MPEG-4 Visual
Профиль формата : Advanced Simple@L5
Параметр BVOP формата : 1
Параметр QPel формата : Нет
Параметр GMC формата : Без точки перехода
Параметр матрицы формата : Выборочная
Идентификатор кодека : XVID
Идентификатор кодека/Подсказка : XviD
Продолжительность : 1 ч. 35 м.
Битрейт : 1779 Кбит/сек
Ширина : 720 пикселей
Высота : 304 пикселя
Соотношение сторон : 2,35:1
Частота кадров : 23,976 кадра/сек
Цветовое пространство : YUV
Субдискретизация насыщенности : 4:2:0
Битовая глубина : 8 бит
Тип развёртки : Прогрессивная
Метод сжатия : С потерями
Бит/(Пиксели*Кадры) : 0.339
Размер потока : 1,19 Гбайт (82%)
Библиотека кодирования : XviD 65
Аудио
Идентификатор : 1
Формат : AC-3
Формат/Информация : Audio Coding 3
Расширение режима : CM (complete main)
Параметр Endianness формата : Big
Идентификатор кодека : 2000
Продолжительность : 1 ч. 35 м.
Вид битрейта : Постоянный
Битрейт : 384 Кбит/сек
Каналы : 6 каналов
Расположение каналов : Front: L C R, Side: L R, LFE
Частота : 48,0 КГц
Битовая глубина : 16 бит
Метод сжатия : С потерями
Размер потока : 263 Мбайт (18%)
Выравнивание : Разделение по промежуткам
Продолжительность промежутка : 42 мс. (1,00 видеокадр)
Время предзагрузки промежутка : 500 мс.
-
Показать сообщения:    

Текущее время: 24-Сен 09:32

Часовой пояс: UTC - 1


Вы не можете начинать темы
Вы не можете отвечать на сообщения
Вы не можете редактировать свои сообщения
Вы не можете удалять свои сообщения
Вы не можете голосовать в опросах
Вы не можете прикреплять файлы к сообщениям
Вы не можете скачивать файлы

!ВНИМАНИЕ!
Сайт не предоставляет электронные версии произведений, а занимается лишь коллекционированием и каталогизацией ссылок, присылаемых и публикуемых на форуме нашими читателями. Если вы являетесь правообладателем какого-либо представленного материала и не желаете, чтобы ссылка на него находилась в нашем каталоге, свяжитесь с нами, и мы незамедлительно удалим ее. Файлы для обмена на трекере предоставлены пользователями сайта, и администрация не несет ответственности за их содержание. Просьба не заливать файлы, защищенные авторскими правами, а также файлы нелегального содержания!