Важное объявление!
У Нас Все раздачи мультитрекерные, при нуле пиров в релизах, можете смело вставать на закачку!
 
Автор Сообщение

mihis

[Профиль] [ЛС]

Атака на Пёрл-Харбор / Rengo kantai shirei chokan: Yamamoto Isoroku
Год выпуска: 2011
Страна: Япония / Destiny
Жанр: Драма, военный, биография
Продолжительность: 02:20:24
Перевод: Профессиональный (полное дублирование) + Авторский(одноголосый, закадровый) А.Дольский
Субтитры: Английские
Режиссер: Идзуру Нарусима
В ролях: Кодзи Якусё, Хироши Абе, Сюити Азумая, Мицугоро Бандо, Акира Эмото, Ёсихико Хакамада, Миэко Харада, Масато Ибу, Сюндзи Игараси, Теруюки Кагава
Описание: Конец 30-х годов прошлого века в Японии — время экономического кризиса, страшной безработицы и нищеты, политической нестабильности. Страна неуклонно двигалась к войне. Адмирал Ямамото, командующий императорским флотом, был одним из немногих, кто считал, что начинать войну с США нельзя. Ранее он не поддерживал ни вторжение в Маньчжурию, ни войну с Китаем. Его позиция вызывала гнев националистов и милитаристов. Они ненавидели Ямомото и угрожали ему. Адмиралу ежедневно грозила опасность стать жертвой покушения. Одновременно он был безгранично популярен во флоте, а также пользовался покровительством императора. Несмотря на его убеждения и предупреждения, когда война со Штатами стала неизбежной, именно Ямомото разработал план нападения на Перл-Харбор, в результате которого американский флот понес огромные потери.

Качество: BDRip-AVC
Формат: MKV
Видео кодек: H.264
Аудио кодек: AC3
Видео: H.264, 960x518 (1,85:1), 23,976 fps, 1588 Кbps, 0.133 bit/pixel
Аудио#1: 48 kHz, AC3 Dolby Digital, 2.0 (L,C) ch, 192.00 kbps Dub
Аудио#2: 48 kHz, AC3 Dolby Digital, 3/2 (L,C,R,l,r) + LFE ch, 448.00 kbps AVO

MediaInfo

Общее
Уникальный идентификатор : 194791142456821993880799806212710797639 (0x928B68CF7AFA17D38E0F021F55271147)
Полное имя : Ataka.na.Perl.Harbor.2011.D.AVO.BDRip.x264.potroks.mkv
Формат : Matroska
Версия формата : Version 4 / Version 2
Размер файла : 2,19 Гбайт
Продолжительность : 2 ч. 20 м.
Общий поток : 2230 Кбит/сек
Название фильма : -=POTROKS=-
Дата кодирования : UTC 2013-05-24 05:49:15
Программа кодирования : mkvmerge v5.9.0 ('On The Loose') built on Dec 15 2012 16:39:58
Библиотека кодирования : libebml v1.3.0 + libmatroska v1.4.0
Видео
Идентификатор : 1
Формат : AVC
Формат/Информация : Advanced Video Codec
Профиль формата : High@L4.1
Параметр CABAC формата : Да
Параметр ReFrames формата : 10 кадров
Идентификатор кодека : V_MPEG4/ISO/AVC
Продолжительность : 2 ч. 20 м.
Битрейт : 1588 Кбит/сек
Ширина : 960 пикселей
Высота : 518 пикселей
Соотношение сторон : 1,85:1
Режим частоты кадров : Постоянный
Частота кадров : 23,976 кадра/сек
Цветовое пространство : YUV
Субдискретизация насыщенности : 4:2:0
Битовая глубина : 8 бит
Тип развёртки : Прогрессивная
Бит/(Пиксели*Кадры) : 0.133
Размер потока : 1,52 Гбайт (69%)
Заголовок : Rengô kantai shirei chôkan: Yamamoto Isoroku
Библиотека кодирования : x264 core 125 r2208 d9d2288
Настройки программы : cabac=1 / ref=10 / deblock=1:-3:-3 / analyse=0x3:0x133 / me=esa / subme=9 / psy=1 / psy_rd=0.95:0.00 / mixed_ref=1 / me_range=48 / chroma_me=1 / trellis=2 / 8x8dct=1 / cqm=0 / deadzone=21,11 / fast_pskip=0 / chroma_qp_offset=-2 / threads=9 / lookahead_threads=1 / sliced_threads=0 / nr=0 / decimate=1 / interlaced=0 / bluray_compat=0 / constrained_intra=0 / bframes=11 / b_pyramid=2 / b_adapt=2 / b_bias=0 / direct=3 / weightb=1 / open_gop=0 / weightp=2 / keyint=240 / keyint_min=23 / scenecut=40 / intra_refresh=0 / rc_lookahead=150 / rc=2pass / mbtree=1 / bitrate=1588 / ratetol=1.0 / qcomp=0.70 / qpmin=0 / qpmax=69 / qpstep=4 / cplxblur=20.0 / qblur=0.5 / vbv_maxrate=20000 / vbv_bufsize=20000 / nal_hrd=none / ip_ratio=1.35 / aq=1:0.80
Язык : Japanese
Default : Да
Forced : Нет
Аудио #1
Идентификатор : 2
Формат : AC-3
Формат/Информация : Audio Coding 3
Расширение режима : CM (complete main)
Параметр Endianness формата : Big
Идентификатор кодека : A_AC3
Продолжительность : 2 ч. 20 м.
Вид битрейта : Постоянный
Битрейт : 192 Кбит/сек
Каналы : 2 канала
Расположение каналов : Front: L R
Частота : 48,0 КГц
Битовая глубина : 16 бит
Метод сжатия : С потерями
Размер потока : 193 Мбайт (9%)
Заголовок : Dub | DD 2.0 @ 192 kbps
Язык : Russian
Default : Да
Forced : Да
Аудио #2
Идентификатор : 3
Формат : AC-3
Формат/Информация : Audio Coding 3
Расширение режима : CM (complete main)
Параметр Endianness формата : Big
Идентификатор кодека : A_AC3
Продолжительность : 2 ч. 20 м.
Вид битрейта : Постоянный
Битрейт : 448 Кбит/сек
Каналы : 6 каналов
Расположение каналов : Front: L C R, Side: L R, LFE
Частота : 48,0 КГц
Битовая глубина : 16 бит
Метод сжатия : С потерями
Размер потока : 450 Мбайт (20%)
Заголовок : AVO | DD 5.1 @ 448 kbps - Дольский
Язык : Russian
Default : Нет
Forced : Нет
Текст
Идентификатор : 4
Формат : UTF-8
Идентификатор кодека : S_TEXT/UTF8
Идентификатор кодека/Информация : UTF-8 Plain Text
Язык : English
Default : Нет
Forced : Нет
 
Показать сообщения:    

Текущее время: Сегодня 02:38

Часовой пояс: GMT



Вы не можете начинать темы
Вы не можете отвечать на сообщения
Вы не можете редактировать свои сообщения
Вы не можете удалять свои сообщения
Вы не можете голосовать в опросах
Вы не можете прикреплять файлы к сообщениям
Вы не можете скачивать файлы