Важное объявление!
У Нас Все раздачи мультитрекерные, при нуле пиров в релизах, можете смело вставать на закачку!
Статистика раздачи
Размер:     |    Зарегистрирован:     |    Скачан:     |   
Нет
 
     
 
 
Автор Сообщение

HUNTER

Стаж:
5 лет
Сообщений:
68391

Репутация: 101

[+] [-]
Вне форума [Профиль] [ЛС]

Атака насекомых / Bug buster / Some things never die
Страна: США
Студия: Shoreline Entertainment
Жанр: Ужасы, фантастика, боевик, комедия
Год выпуска: 1998
Продолжительность: 01:29:19
Перевод: Профессиональный (многоголосый закадровый)
Cубтитры: нет
Оригинальная аудиодорожка: английский
Режиссер: Лоренцо Домани / Lorenzo Doumani
В ролях: Рэнди Куэйд, Брэнда Эпперсон Домани, Кэтрин Хейгл, Джеймс Дуэн, Джордж Такей, Мередит Сэленджер, Тай О’Нил, Дэвид Липпер, Берни Копелл, Энн Локхарт
Описание: Небольшой калифорнийский курорт Маунтвью, расположенный на берегу озера, заполонили тараканы. Огромные тараканы-убийцы размножаются в темных влажных местах и достигают в длину до трех метров. Люди напуганы, и местные власти вызывают на подмогу крутейшего истребителя насекомых Полковника Джорджа. Теперь жители получили надежду…
Бонусы: Трейлеры
Меню: анимированное
Сэмпл: https://yadi.sk/d/QGKKtGVFbpS5U
Тип релиза: DVD5 (Custom)
Контейнер: DVD-Video
Видео: MPEG2 Video 720x576 (4:3) 25fps [V: mpeg2 main, yuv420p, 720x576]
Аудио: Dolby AC3 48000Hz stereo 192kbps [A: ac3, 48000 Hz, stereo, 192 kb/s]
Аудио 2: Dolby AC3 48000Hz stereo 192kbps [A: ac3, 48000 Hz, stereo, 192 kb/s]

dvdInfo

Title: Bug buster
Size: 4.35 Gb ( 4 566 024,00 KBytes ) - DVD-5
Enabled regions: 1, 2, 3, 4, 5, 6
VTS_01 :
Play Length: 00:00:26
Video: PAL 4:3 (720x576) VBR
Audio:
Not specified (Dolby AC3, 2 ch)
VTS_02 :
Play Length: 01:29:19
Video: PAL 4:3 (720x576) VBR
Audio:
Russian (Dolby AC3, 2 ch)
English (Dolby AC3, 2 ch)
VTS_03 :
Play Length: 00:02:07
Video: PAL 4:3 (720x576) VBR
Audio:
Not specified (Dolby AC3, 2 ch)
* Menus Information *
VIDEO_TS Menu
Video:
PAL 4:3 (720x576) VBR
Audio:
Not specified (Dolby AC3, 2 ch)
English Language Unit :
Title Menu
VTS_01 Menu
Video:
NTSC 4:3 (720x480) VBR
Auto Pan&Scan, Auto Letterboxed
Language Unit :
Subpicture Menu
Angle menu
Language Unit :
Subpicture Menu
Angle menu
Language Unit :
Subpicture Menu
Angle menu
Language Unit :
Subpicture Menu
Angle menu
Language Unit :
Subpicture Menu
Angle menu
VTS_02 Menu
Video:
PAL 4:3 (720x576) VBR
Audio:
Not specified (Dolby AC3, 2 ch)
English Language Unit :
Root Menu
VTS_03 Menu
Video:
PAL 4:3 (720x576) VBR
Audio:
Not specified (Dolby AC3, 2 ch)
English Language Unit :
Root Menu

MediaInfo исходника

Общее
Полное имя : D:\Some things never die (aka Bug buster)-CG\VIDEO_TS\VIDEO_TS.BUP
Формат : DVD Video
Профиль формата : Menu
Размер файла : 14,0 Кбайт
Режим общего битрейта : Переменный
Видео
Идентификатор : 224 (0xE0)
Формат : MPEG Video
Версия формата : Version 2
Вид битрейта : Переменный
Ширина : 720 пикселей
Высота : 576 пикселей
Соотношение сторон : 4:3
Частота кадров : 25,000 кадров/сек
Стандарт вещания : PAL
Метод сжатия : С потерями
Аудио
Формат : AC-3
Формат/Информация : Audio Coding 3
Каналы : 2 канала
Частота : 48,0 КГц
Метод сжатия : С потерями
Текст
Формат : RLE
Формат/Информация : Run-length encoding
Битовая глубина : 2 бит
Общее
Полное имя : D:\Some things never die (aka Bug buster)-CG\VIDEO_TS\VIDEO_TS.IFO
Формат : DVD Video
Профиль формата : Menu
Размер файла : 14,0 Кбайт
Режим общего битрейта : Переменный
Видео
Идентификатор : 224 (0xE0)
Формат : MPEG Video
Версия формата : Version 2
Вид битрейта : Переменный
Ширина : 720 пикселей
Высота : 576 пикселей
Соотношение сторон : 4:3
Частота кадров : 25,000 кадров/сек
Стандарт вещания : PAL
Метод сжатия : С потерями
Аудио
Формат : AC-3
Формат/Информация : Audio Coding 3
Каналы : 2 канала
Частота : 48,0 КГц
Метод сжатия : С потерями
Текст
Формат : RLE
Формат/Информация : Run-length encoding
Битовая глубина : 2 бит
Общее
Полное имя : D:\Some things never die (aka Bug buster)-CG\VIDEO_TS\VIDEO_TS.VOB
Формат : MPEG-PS
Размер файла : 20,1 Мбайт
Продолжительность : 28 с.
Общий поток : 5825 Кбит/сек
Видео
Идентификатор : 224 (0xE0)
Формат : MPEG Video
Версия формата : Version 2
Профиль формата : Main@Main
Параметр BVOP формата : Да
Параметр матрицы формата : По умолчанию
Параметр GOP формата : M=5, N=26
Format_Settings_PictureStructure : Field
Продолжительность : 28 с.
Битрейт : 5500 Кбит/сек
Ширина : 720 пикселей
Высота : 576 пикселей
Соотношение сторон : 4:3
Частота кадров : 25,000 кадров/сек
Стандарт вещания : PAL
Цветовое пространство : YUV
Субдискретизация насыщенности : 4:2:0
Битовая глубина : 8 бит
Тип развёртки : Чересстрочная
Порядок развёртки : Верхнее поле первое
Метод сжатия : С потерями
Бит/(Пиксели*Кадры) : 0.530
Временной код первого кадра : 03:32:38:00
Оригинал временного кода : Group of pictures header
Размер потока : 19,1 Мбайт (95%)
Основные цвета : BT.601 PAL
Характеристики трансфера : BT.470 System B, BT.470 System G
Коэффициенты матрицы : BT.601
Аудио
Идентификатор : 189 (0xBD)-128 (0x80)
Формат : AC-3
Формат/Информация : Audio Coding 3
Расширение режима : CM (complete main)
Параметр Endianness формата : Big
Режим смешивания : DVD-Video
Продолжительность : 28 с.
Вид битрейта : Постоянный
Битрейт : 192 Кбит/сек
Каналы : 2 канала
Расположение каналов : Front: L R
Частота : 48,0 КГц
Битовая глубина : 16 бит
Метод сжатия : С потерями
Размер потока : 680 Кбайт (3%)
Текст
Идентификатор : 189 (0xBD)-32 (0x20)
Формат : RLE
Формат/Информация : Run-length encoding
Режим смешивания : DVD-Video
Меню
Общее
Полное имя : D:\Some things never die (aka Bug buster)-CG\VIDEO_TS\VTS_01_0.BUP
Формат : DVD Video
Профиль формата : Program
Размер файла : 12,0 Кбайт
Продолжительность : 26 с.
Режим общего битрейта : Переменный
Общий поток : 3718 бит/сек
Видео
Идентификатор : 224 (0xE0)
Формат : MPEG Video
Версия формата : Version 2
Продолжительность : 26 с.
Вид битрейта : Переменный
Ширина : 720 пикселей
Высота : 576 пикселей
Соотношение сторон : 4:3
Частота кадров : 25,000 кадров/сек
Стандарт вещания : PAL
Метод сжатия : С потерями
Аудио
Идентификатор : 128 (0x80)
Формат : AC-3
Формат/Информация : Audio Coding 3
Продолжительность : 26 с.
Каналы : 2 канала
Частота : 48,0 КГц
Метод сжатия : С потерями
Меню
Продолжительность : 26 с.
00:00:00.000 : Chapter 1
00:00:00.800 : Chapter 2
List (Audio) : 0
Общее
Полное имя : D:\Some things never die (aka Bug buster)-CG\VIDEO_TS\VTS_01_0.IFO
Формат : DVD Video
Профиль формата : Program
Размер файла : 12,0 Кбайт
Продолжительность : 26 с.
Режим общего битрейта : Переменный
Общий поток : 3718 бит/сек
Видео
Идентификатор : 224 (0xE0)
Формат : MPEG Video
Версия формата : Version 2
Продолжительность : 26 с.
Вид битрейта : Переменный
Ширина : 720 пикселей
Высота : 576 пикселей
Соотношение сторон : 4:3
Частота кадров : 25,000 кадров/сек
Стандарт вещания : PAL
Метод сжатия : С потерями
Аудио
Идентификатор : 128 (0x80)
Формат : AC-3
Формат/Информация : Audio Coding 3
Продолжительность : 26 с.
Каналы : 2 канала
Частота : 48,0 КГц
Метод сжатия : С потерями
Меню
Продолжительность : 26 с.
00:00:00.000 : Chapter 1
00:00:00.800 : Chapter 2
List (Audio) : 0
Общее
Полное имя : D:\Some things never die (aka Bug buster)-CG\VIDEO_TS\VTS_01_1.VOB
Формат : MPEG-PS
Размер файла : 17,6 Мбайт
Продолжительность : 25 с.
Общий поток : 5863 Кбит/сек
Видео
Идентификатор : 224 (0xE0)
Формат : MPEG Video
Версия формата : Version 2
Профиль формата : Main@Main
Параметр BVOP формата : Да
Параметр матрицы формата : По умолчанию
Параметр GOP формата : M=5, N=26
Продолжительность : 25 с.
Битрейт : 5554 Кбит/сек
Ширина : 720 пикселей
Высота : 576 пикселей
Соотношение сторон : 4:3
Частота кадров : 25,000 кадров/сек
Стандарт вещания : PAL
Цветовое пространство : YUV
Субдискретизация насыщенности : 4:2:0
Битовая глубина : 8 бит
Метод сжатия : С потерями
Бит/(Пиксели*Кадры) : 0.536
Размер потока : 16,7 Мбайт (95%)
Основные цвета : BT.601 PAL
Характеристики трансфера : BT.470 System B, BT.470 System G
Коэффициенты матрицы : BT.601
Аудио
Идентификатор : 189 (0xBD)-128 (0x80)
Формат : AC-3
Формат/Информация : Audio Coding 3
Расширение режима : CM (complete main)
Параметр Endianness формата : Big
Режим смешивания : DVD-Video
Продолжительность : 25 с.
Вид битрейта : Постоянный
Битрейт : 192 Кбит/сек
Каналы : 2 канала
Расположение каналов : Front: L R
Частота : 48,0 КГц
Битовая глубина : 16 бит
Метод сжатия : С потерями
Задержка видео : -39 мс.
Размер потока : 592 Кбайт (3%)
Меню
Общее
Полное имя : D:\Some things never die (aka Bug buster)-CG\VIDEO_TS\VTS_02_0.BUP
Формат : DVD Video
Профиль формата : Program
Размер файла : 64,0 Кбайт
Продолжительность : 1 ч. 29 м.
Режим общего битрейта : Переменный
Общий поток : 98 бит/сек
Видео
Идентификатор : 224 (0xE0)
Формат : MPEG Video
Версия формата : Version 2
Продолжительность : 1 ч. 29 м.
Вид битрейта : Переменный
Ширина : 720 пикселей
Высота : 576 пикселей
Соотношение сторон : 4:3
Частота кадров : 25,000 кадров/сек
Стандарт вещания : PAL
Метод сжатия : С потерями
Аудио
Идентификатор : 128 (0x80)
Формат : AC-3
Формат/Информация : Audio Coding 3
Продолжительность : 1 ч. 29 м.
Каналы : 2 канала
Частота : 48,0 КГц
Метод сжатия : С потерями
Меню
Продолжительность : 1 ч. 29 м.
00:00:00.000 : Chapter 1
00:02:19.360 : Chapter 2
00:03:56.600 : Chapter 3
00:09:30.960 : Chapter 4
00:11:27.440 : Chapter 5
00:13:51.480 : Chapter 6
00:15:49.520 : Chapter 7
00:19:55.480 : Chapter 8
00:24:56.040 : Chapter 9
00:27:11.240 : Chapter 10
00:30:35.080 : Chapter 11
00:32:45.600 : Chapter 12
00:34:31.160 : Chapter 13
00:36:39.080 : Chapter 14
00:40:24.760 : Chapter 15
00:44:26.560 : Chapter 16
00:54:58.360 : Chapter 17
00:57:09.400 : Chapter 18
01:02:34.920 : Chapter 19
01:20:04.280 : Chapter 20
01:25:59.960 : Chapter 21
List (Audio) : 0
Общее
Полное имя : D:\Some things never die (aka Bug buster)-CG\VIDEO_TS\VTS_02_0.IFO
Формат : DVD Video
Профиль формата : Program
Размер файла : 64,0 Кбайт
Продолжительность : 1 ч. 29 м.
Режим общего битрейта : Переменный
Общий поток : 98 бит/сек
Видео
Идентификатор : 224 (0xE0)
Формат : MPEG Video
Версия формата : Version 2
Продолжительность : 1 ч. 29 м.
Вид битрейта : Переменный
Ширина : 720 пикселей
Высота : 576 пикселей
Соотношение сторон : 4:3
Частота кадров : 25,000 кадров/сек
Стандарт вещания : PAL
Метод сжатия : С потерями
Аудио
Идентификатор : 128 (0x80)
Формат : AC-3
Формат/Информация : Audio Coding 3
Продолжительность : 1 ч. 29 м.
Каналы : 2 канала
Частота : 48,0 КГц
Метод сжатия : С потерями
Меню
Продолжительность : 1 ч. 29 м.
00:00:00.000 : Chapter 1
00:02:19.360 : Chapter 2
00:03:56.600 : Chapter 3
00:09:30.960 : Chapter 4
00:11:27.440 : Chapter 5
00:13:51.480 : Chapter 6
00:15:49.520 : Chapter 7
00:19:55.480 : Chapter 8
00:24:56.040 : Chapter 9
00:27:11.240 : Chapter 10
00:30:35.080 : Chapter 11
00:32:45.600 : Chapter 12
00:34:31.160 : Chapter 13
00:36:39.080 : Chapter 14
00:40:24.760 : Chapter 15
00:44:26.560 : Chapter 16
00:54:58.360 : Chapter 17
00:57:09.400 : Chapter 18
01:02:34.920 : Chapter 19
01:20:04.280 : Chapter 20
01:25:59.960 : Chapter 21
List (Audio) : 0
Общее
Полное имя : D:\Some things never die (aka Bug buster)-CG\VIDEO_TS\VTS_02_0.VOB
Формат : MPEG-PS
Размер файла : 158 Мбайт
Продолжительность : 58 с.
Общий поток : 22,9 Мбит/сек
Видео
Идентификатор : 224 (0xE0)
Формат : MPEG Video
Версия формата : Version 2
Профиль формата : Main@Main
Параметр BVOP формата : Да
Параметр матрицы формата : По умолчанию
Параметр GOP формата : M=5, N=26
Format_Settings_PictureStructure : Field
Продолжительность : 57 с.
Битрейт : 22,2 Мбит/сек
Максимальный битрейт : 5500 Кбит/сек
Ширина : 720 пикселей
Высота : 576 пикселей
Соотношение сторон : 4:3
Частота кадров : 25,000 кадров/сек
Стандарт вещания : PAL
Цветовое пространство : YUV
Субдискретизация насыщенности : 4:2:0
Битовая глубина : 8 бит
Тип развёртки : Чересстрочная
Порядок развёртки : Верхнее поле первое
Метод сжатия : С потерями
Бит/(Пиксели*Кадры) : 2.143
Временной код первого кадра : 03:24:23:00
Оригинал временного кода : Group of pictures header
Размер потока : 154 Мбайт (97%)
Основные цвета : BT.601 PAL
Характеристики трансфера : BT.470 System B, BT.470 System G
Коэффициенты матрицы : BT.601
Аудио
Идентификатор : 189 (0xBD)-128 (0x80)
Формат : AC-3
Формат/Информация : Audio Coding 3
Расширение режима : CM (complete main)
Параметр Endianness формата : Big
Режим смешивания : DVD-Video
Продолжительность : 58 с.
Вид битрейта : Постоянный
Битрейт : 192 Кбит/сек
Каналы : 2 канала
Расположение каналов : Front: L R
Частота : 48,0 КГц
Битовая глубина : 16 бит
Метод сжатия : С потерями
Размер потока : 1,33 Мбайт (1%)
Текст
Идентификатор : 189 (0xBD)-32 (0x20)
Формат : RLE
Формат/Информация : Run-length encoding
Режим смешивания : DVD-Video
Меню
Общее
Полное имя : D:\Some things never die (aka Bug buster)-CG\VIDEO_TS\VTS_02_1.VOB
Формат : MPEG-PS
Размер файла : 1024 Мбайт
Продолжительность : 21 м.
Режим общего битрейта : Переменный
Общий поток : 6568 Кбит/сек
Видео
Идентификатор : 224 (0xE0)
Формат : MPEG Video
Версия формата : Version 2
Профиль формата : Main@Main
Параметр BVOP формата : Да
Параметр матрицы формата : По умолчанию
Параметр GOP формата : M=5, N=26
Format_Settings_PictureStructure : Field
Продолжительность : 21 м.
Вид битрейта : Переменный
Битрейт : 6245 Кбит/сек
Максимальный битрейт : 9000 Кбит/сек
Ширина : 720 пикселей
Высота : 576 пикселей
Соотношение сторон : 4:3
Частота кадров : 25,000 кадров/сек
Стандарт вещания : PAL
Цветовое пространство : YUV
Субдискретизация насыщенности : 4:2:0
Битовая глубина : 8 бит
Тип развёртки : Чересстрочная
Порядок развёртки : Верхнее поле первое
Метод сжатия : С потерями
Бит/(Пиксели*Кадры) : 0.602
Временной код первого кадра : 01:02:15:09
Оригинал временного кода : Group of pictures header
Размер потока : 974 Мбайт (95%)
Основные цвета : BT.601 PAL
Характеристики трансфера : BT.470 System B, BT.470 System G
Коэффициенты матрицы : BT.601
Аудио
Идентификатор : 189 (0xBD)-128 (0x80)
Формат : AC-3
Формат/Информация : Audio Coding 3
Расширение режима : CM (complete main)
Параметр Endianness формата : Big
Режим смешивания : DVD-Video
Продолжительность : 21 м.
Вид битрейта : Постоянный
Битрейт : 192 Кбит/сек
Каналы : 2 канала
Расположение каналов : Front: L R
Частота : 48,0 КГц
Битовая глубина : 16 бит
Метод сжатия : С потерями
Размер потока : 29,9 Мбайт (3%)
Меню
Общее
Полное имя : D:\Some things never die (aka Bug buster)-CG\VIDEO_TS\VTS_02_2.VOB
Формат : MPEG-PS
Размер файла : 1024 Мбайт
Продолжительность : 22 м.
Режим общего битрейта : Переменный
Общий поток : 6302 Кбит/сек
Видео
Идентификатор : 224 (0xE0)
Формат : MPEG Video
Версия формата : Version 2
Профиль формата : Main@Main
Параметр BVOP формата : Да
Параметр матрицы формата : По умолчанию
Параметр GOP формата : M=5, N=26
Format_Settings_PictureStructure : Field
Продолжительность : 22 м.
Вид битрейта : Переменный
Битрейт : 5985 Кбит/сек
Максимальный битрейт : 9000 Кбит/сек
Ширина : 720 пикселей
Высота : 576 пикселей
Соотношение сторон : 4:3
Частота кадров : 25,000 кадров/сек
Стандарт вещания : PAL
Цветовое пространство : YUV
Субдискретизация насыщенности : 4:2:0
Битовая глубина : 8 бит
Тип развёртки : Чересстрочная
Порядок развёртки : Верхнее поле первое
Метод сжатия : С потерями
Бит/(Пиксели*Кадры) : 0.577
Временной код первого кадра : 01:24:03:17
Оригинал временного кода : Group of pictures header
Размер потока : 972 Мбайт (95%)
Основные цвета : BT.601 PAL
Характеристики трансфера : BT.470 System B, BT.470 System G
Коэффициенты матрицы : BT.601
Аудио
Идентификатор : 189 (0xBD)-128 (0x80)
Формат : AC-3
Формат/Информация : Audio Coding 3
Расширение режима : CM (complete main)
Параметр Endianness формата : Big
Режим смешивания : DVD-Video
Продолжительность : 22 м.
Вид битрейта : Постоянный
Битрейт : 192 Кбит/сек
Каналы : 2 канала
Расположение каналов : Front: L R
Частота : 48,0 КГц
Битовая глубина : 16 бит
Метод сжатия : С потерями
Задержка видео : -512 мс.
Размер потока : 31,2 Мбайт (3%)
Меню
Общее
Полное имя : D:\Some things never die (aka Bug buster)-CG\VIDEO_TS\VTS_02_3.VOB
Формат : MPEG-PS
Размер файла : 1024 Мбайт
Продолжительность : 23 м.
Режим общего битрейта : Переменный
Общий поток : 6065 Кбит/сек
Видео
Идентификатор : 224 (0xE0)
Формат : MPEG Video
Версия формата : Version 2
Профиль формата : Main@Main
Параметр BVOP формата : Да
Параметр матрицы формата : По умолчанию
Параметр GOP формата : M=5, N=26
Format_Settings_PictureStructure : Field
Продолжительность : 23 м.
Вид битрейта : Переменный
Битрейт : 5752 Кбит/сек
Максимальный битрейт : 9000 Кбит/сек
Ширина : 720 пикселей
Высота : 576 пикселей
Соотношение сторон : 4:3
Частота кадров : 25,000 кадров/сек
Стандарт вещания : PAL
Цветовое пространство : YUV
Субдискретизация насыщенности : 4:2:0
Битовая глубина : 8 бит
Тип развёртки : Чересстрочная
Порядок развёртки : Верхнее поле первое
Метод сжатия : С потерями
Бит/(Пиксели*Кадры) : 0.555
Временной код первого кадра : 01:46:46:15
Оригинал временного кода : Group of pictures header
Размер потока : 971 Мбайт (95%)
Основные цвета : BT.601 PAL
Характеристики трансфера : BT.470 System B, BT.470 System G
Коэффициенты матрицы : BT.601
Аудио
Идентификатор : 189 (0xBD)-128 (0x80)
Формат : AC-3
Формат/Информация : Audio Coding 3
Расширение режима : CM (complete main)
Параметр Endianness формата : Big
Режим смешивания : DVD-Video
Продолжительность : 23 м.
Вид битрейта : Постоянный
Битрейт : 192 Кбит/сек
Каналы : 2 канала
Расположение каналов : Front: L R
Частота : 48,0 КГц
Битовая глубина : 16 бит
Метод сжатия : С потерями
Задержка видео : -360 мс.
Размер потока : 32,4 Мбайт (3%)
Меню
Общее
Полное имя : D:\Some things never die (aka Bug buster)-CG\VIDEO_TS\VTS_02_4.VOB
Формат : MPEG-PS
Размер файла : 960 Мбайт
Продолжительность : 21 м.
Режим общего битрейта : Переменный
Общий поток : 6327 Кбит/сек
Видео
Идентификатор : 224 (0xE0)
Формат : MPEG Video
Версия формата : Version 2
Профиль формата : Main@Main
Параметр BVOP формата : Да
Параметр матрицы формата : По умолчанию
Параметр GOP формата : M=5, N=26
Format_Settings_PictureStructure : Field
Продолжительность : 21 м.
Вид битрейта : Переменный
Битрейт : 6009 Кбит/сек
Максимальный битрейт : 9000 Кбит/сек
Ширина : 720 пикселей
Высота : 576 пикселей
Соотношение сторон : 4:3
Частота кадров : 25,000 кадров/сек
Стандарт вещания : PAL
Цветовое пространство : YUV
Субдискретизация насыщенности : 4:2:0
Битовая глубина : 8 бит
Тип развёртки : Чересстрочная
Порядок развёртки : Верхнее поле первое
Метод сжатия : С потерями
Бит/(Пиксели*Кадры) : 0.580
Временной код первого кадра : 02:10:23:02
Оригинал временного кода : Group of pictures header
Размер потока : 911 Мбайт (95%)
Основные цвета : BT.601 PAL
Характеристики трансфера : BT.470 System B, BT.470 System G
Коэффициенты матрицы : BT.601
Аудио
Идентификатор : 189 (0xBD)-128 (0x80)
Формат : AC-3
Формат/Информация : Audio Coding 3
Расширение режима : CM (complete main)
Параметр Endianness формата : Big
Режим смешивания : DVD-Video
Продолжительность : 21 м.
Вид битрейта : Постоянный
Битрейт : 192 Кбит/сек
Каналы : 2 канала
Расположение каналов : Front: L R
Частота : 48,0 КГц
Битовая глубина : 16 бит
Метод сжатия : С потерями
Задержка видео : -424 мс.
Размер потока : 29,1 Мбайт (3%)
Меню
Общее
Полное имя : D:\Some things never die (aka Bug buster)-CG\VIDEO_TS\VTS_03_0.BUP
Формат : DVD Video
Профиль формата : Program
Размер файла : 18,0 Кбайт
Продолжительность : 2 м. 7 с.
Режим общего битрейта : Переменный
Общий поток : 1158 бит/сек
Видео
Идентификатор : 224 (0xE0)
Формат : MPEG Video
Версия формата : Version 2
Продолжительность : 2 м. 7 с.
Вид битрейта : Переменный
Ширина : 720 пикселей
Высота : 576 пикселей
Соотношение сторон : 4:3
Частота кадров : 25,000 кадров/сек
Стандарт вещания : PAL
Метод сжатия : С потерями
Аудио
Идентификатор : 128 (0x80)
Формат : AC-3
Формат/Информация : Audio Coding 3
Продолжительность : 2 м. 7 с.
Каналы : 2 канала
Частота : 48,0 КГц
Метод сжатия : С потерями
Меню
Продолжительность : 2 м. 7 с.
00:00:00.000 : Chapter 1
00:02:05.320 : Chapter 2
00:02:05.720 : Chapter 3
00:02:06.120 : Chapter 4
00:02:06.520 : Chapter 5
00:02:06.920 : Chapter 6
List (Audio) : 0
Общее
Полное имя : D:\Some things never die (aka Bug buster)-CG\VIDEO_TS\VTS_03_0.IFO
Формат : DVD Video
Профиль формата : Program
Размер файла : 18,0 Кбайт
Продолжительность : 2 м. 7 с.
Режим общего битрейта : Переменный
Общий поток : 1158 бит/сек
Видео
Идентификатор : 224 (0xE0)
Формат : MPEG Video
Версия формата : Version 2
Продолжительность : 2 м. 7 с.
Вид битрейта : Переменный
Ширина : 720 пикселей
Высота : 576 пикселей
Соотношение сторон : 4:3
Частота кадров : 25,000 кадров/сек
Стандарт вещания : PAL
Метод сжатия : С потерями
Аудио
Идентификатор : 128 (0x80)
Формат : AC-3
Формат/Информация : Audio Coding 3
Продолжительность : 2 м. 7 с.
Каналы : 2 канала
Частота : 48,0 КГц
Метод сжатия : С потерями
Меню
Продолжительность : 2 м. 7 с.
00:00:00.000 : Chapter 1
00:02:05.320 : Chapter 2
00:02:05.720 : Chapter 3
00:02:06.120 : Chapter 4
00:02:06.520 : Chapter 5
00:02:06.920 : Chapter 6
List (Audio) : 0
Общее
Полное имя : D:\Some things never die (aka Bug buster)-CG\VIDEO_TS\VTS_03_0.VOB
Формат : MPEG-PS
Размер файла : 19,4 Мбайт
Продолжительность : 28 с.
Общий поток : 5677 Кбит/сек
Видео
Идентификатор : 224 (0xE0)
Формат : MPEG Video
Версия формата : Version 2
Профиль формата : Main@Main
Параметр BVOP формата : Да
Параметр матрицы формата : По умолчанию
Параметр GOP формата : M=5, N=26
Format_Settings_PictureStructure : Field
Продолжительность : 28 с.
Битрейт : 5372 Кбит/сек
Максимальный битрейт : 5500 Кбит/сек
Ширина : 720 пикселей
Высота : 576 пикселей
Соотношение сторон : 4:3
Частота кадров : 25,000 кадров/сек
Стандарт вещания : PAL
Цветовое пространство : YUV
Субдискретизация насыщенности : 4:2:0
Битовая глубина : 8 бит
Тип развёртки : Чересстрочная
Порядок развёртки : Верхнее поле первое
Метод сжатия : С потерями
Бит/(Пиксели*Кадры) : 0.518
Временной код первого кадра : 03:30:30:00
Оригинал временного кода : Group of pictures header
Размер потока : 18,4 Мбайт (95%)
Основные цвета : BT.601 PAL
Характеристики трансфера : BT.470 System B, BT.470 System G
Коэффициенты матрицы : BT.601
Аудио
Идентификатор : 189 (0xBD)-128 (0x80)
Формат : AC-3
Формат/Информация : Audio Coding 3
Расширение режима : CM (complete main)
Параметр Endianness формата : Big
Режим смешивания : DVD-Video
Продолжительность : 28 с.
Вид битрейта : Постоянный
Битрейт : 192 Кбит/сек
Каналы : 2 канала
Расположение каналов : Front: L R
Частота : 48,0 КГц
Битовая глубина : 16 бит
Метод сжатия : С потерями
Задержка видео : -8 мс.
Размер потока : 674 Кбайт (3%)
Текст
Идентификатор : 189 (0xBD)-32 (0x20)
Формат : RLE
Формат/Информация : Run-length encoding
Режим смешивания : DVD-Video
Меню
Общее
Полное имя : D:\Some things never die (aka Bug buster)-CG\VIDEO_TS\VTS_03_1.VOB
Формат : MPEG-PS
Размер файла : 87,1 Мбайт
Продолжительность : 2 м. 5 с.
Общий поток : 5833 Кбит/сек
Видео
Идентификатор : 224 (0xE0)
Формат : MPEG Video
Версия формата : Version 2
Профиль формата : Main@Main
Параметр BVOP формата : Да
Параметр матрицы формата : По умолчанию
Параметр GOP формата : Variable
Format_Settings_PictureStructure : Field
Продолжительность : 31 мс.
Битрейт : 5500 Кбит/сек
Ширина : 720 пикселей
Высота : 576 пикселей
Соотношение сторон : 4:3
Частота кадров : 25,000 кадров/сек
Стандарт вещания : PAL
Цветовое пространство : YUV
Субдискретизация насыщенности : 4:2:0
Битовая глубина : 8 бит
Тип развёртки : Чересстрочная
Порядок развёртки : Верхнее поле первое
Метод сжатия : С потерями
Бит/(Пиксели*Кадры) : 0.530
Временной код первого кадра : 03:21:40:17
Оригинал временного кода : Group of pictures header
Размер потока : 27,0 Кбайт (0%)
Основные цвета : BT.601 PAL
Характеристики трансфера : BT.470 System B, BT.470 System G
Коэффициенты матрицы : BT.601
Аудио
Идентификатор : 189 (0xBD)-128 (0x80)
Формат : AC-3
Формат/Информация : Audio Coding 3
Расширение режима : CM (complete main)
Параметр Endianness формата : Big
Режим смешивания : DVD-Video
Продолжительность : 2 м. 5 с.
Вид битрейта : Постоянный
Битрейт : 192 Кбит/сек
Каналы : 2 канала
Расположение каналов : Front: L R
Частота : 48,0 КГц
Битовая глубина : 16 бит
Метод сжатия : С потерями
Размер потока : 2,87 Мбайт (3%)
Меню

Скриншоты меню

Скриншоты

диск скачан из сети, добавлена русская дорожка с переводом, dvd пересоран при помощи pgc demux,BeLight,eac3togui , mux man, dvd remake, дорожка подогнана в cubase 7

_________________
Показать сообщения:    

Текущее время: Сегодня 19:43

Часовой пояс: GMT



Вы не можете начинать темы
Вы не можете отвечать на сообщения
Вы не можете редактировать свои сообщения
Вы не можете удалять свои сообщения
Вы не можете голосовать в опросах
Вы не можете прикреплять файлы к сообщениям
Вы не можете скачивать файлы