Атакамская Большая Миллиметровая Решетка (ALMA) / Глаза пустыни Атакама / Eyes of the Atacama (Аннетт Шеурих, Клаус Шеурих / Annette Scheurich, Klaus Scheurich) [2013, Док. Наука. Астрономия, TVRip] :: Ивановский Торрент трекер
Важное объявление!
У Нас Все раздачи мультитрекерные, при нуле пиров в релизах, можете смело вставать на закачку!
 
Автор Сообщение

HUNTER

Стаж:
4 года 11 месяцев
Сообщений:
66051

Репутация: 101

[+] [-]
Вне форума [Профиль] [ЛС]

Атакамская Большая Миллиметровая Решетка (ALMA) / Глаза пустыни Атакама / Eyes of the Atacama
Год выпуска: 2013
Страна: Германия
Жанр: Док. Наука. Астрономия
Продолжительность: 00:52:03
Перевод: Профессиональный (двухголосый закадровый)
Доп. инфо о переводе: СВ-Дубль
Русские субтитры: нет
Режиссер: Аннетт Шеурих, Клаус Шеурих / Annette Scheurich, Klaus Scheurich
Телеканал: Россия Культура
Описание: Расположенная на севере Чили пустыня Атакама - далекое, негостеприимное место, напоминающее инопланетный пейзаж из научно-фантастического фильма. Здесь находится самая большая наземная обсерватория. Новейшие телескопы вглядываются в далекие туманности космоса. Они следят за рождением и гибелью звезд и планет.
Атакамская Большая Миллиметровая/субмиллиметровая Решетка (сокр.: ALMA. англ.: Atacama Large Millimeter/submillimeter Array) — международный проект, целью которого является постройка крупнейшей астрономической обсерватории в Чили. По завершению проекта комплекс будет состоять как минимум из 66 радиотелескопов 7 и 12 метров в диаметре каждый, объединенных в единый радиоинтерферометр. Телескоп предназначен для изучения процессов, происходивших на протяжении первых сотен миллионов лет после Большого Взрыва, когда формировалось первое поколение звезд. С его помощью планируется получить новые данные, объясняющие механизмы эволюции Вселенной.
Группа:
Сэмпл: http://sendfile.su/1085367
Качество: TVRip
Формат: AVI
Видео: Video: H264 700x400 25.00fps 1100Kbps
Аудио: Аудио: MPEG Audio Layer 3 44100Hz stereo 192Kbps

MediaInfo

GeneralComplete name : F:\Европейская южная обсерватория. Атакамская Большая Миллиметровая Решетка (ALMA) [Eyes of the Atacama] (2013).aviFormat : AVIFormat/Info : Audio Video InterleaveFile size : 485 MiBDuration : 52mn 3sOverall bit rate : 1 302 KbpsWriting library : VirtualDub build 28346/release
VideoID : 0Format : AVCFormat/Info : Advanced Video CodecFormat profile : High@L3.1Format settings, CABAC : YesFormat settings, ReFrames : 8 framesCodec ID : H264Duration : 52mn 3sBit rate : 1 100 KbpsWidth : 700 pixelsHeight : 400 pixelsDisplay aspect ratio : 16:9Frame rate : 25.000 fpsColor space : YUVChroma subsampling : 4:2:0Bit depth : 8 bitsScan type : ProgressiveBits/(Pixel*Frame) : 0.157Stream size : 410 MiB (85%)Writing library : x264 core 130 r2274bm c832fe9Encoding settings : cabac=1 / ref=8 / deblock=1:-1:-1 / analyse=0x3:0x133 / me=umh / subme=9 / psy=1 / psy_rd=1.00:0.15 / mixed_ref=1 /me_range=16 / chroma_me=1 / trellis=2 / 8x8dct=1 / cqm=0 / deadzone=21,11 / fast_pskip=1 / chroma_qp_offset=-3 / threads=6 / lookahead_threads=1 /sliced_threads=0 / nr=0 / decimate=1 / interlaced=0 / bluray_compat=0 / constrained_intra=0 / bframes=3 / b_pyramid=2 / b_adapt=2 / b_bias=0 / direct=3 /weightb=1 / open_gop=0 / weightp=2 / keyint=250 / keyint_min=25 / scenecut=40 / intra_refresh=0 / rc_lookahead=60 / rc=2pass / mbtree=1 / bitrate=1100 /ratetol=1.0 / qcomp=0.60 / qpmin=0 / qpmax=69 / qpstep=4 / cplxblur=20.0 / qblur=0.5 / ip_ratio=1.40 / aq=1:1.00
AudioID : 1Format : MPEG AudioFormat version : Version 1Format profile : Layer 3Mode : Joint stereoCodec ID : 55Codec ID/Hint : MP3Duration : 52mn 3sBit rate mode : ConstantBit rate : 192 KbpsChannel(s) : 2 channelsSampling rate : 44.1 KHzStream size : 71.4 MiB (15%)Alignment : Split accross interleavesInterleave, duration : 40 ms (1.00 video frame)Interleave, preload duration : 500 ms

Скриншоты


_________________
Показать сообщения:    

Текущее время: Сегодня 03:52

Часовой пояс: GMT



Вы не можете начинать темы
Вы не можете отвечать на сообщения
Вы не можете редактировать свои сообщения
Вы не можете удалять свои сообщения
Вы не можете голосовать в опросах
Вы не можете прикреплять файлы к сообщениям
Вы не можете скачивать файлы