Ивановский Торрент трекер
Яндекс.Погода
 

[Цитировать]
HUNTER

Астрономия. Гид по небуBBC. Stargazing. A Graphic Guide to the Heavens
Год выпуска: 2004
Жанр: образовательный
Продолжительность: 2х30+2х59
Перевод: субтитры от exitsub (1 серия) и Space Age aka Aelita XXII (2 серия)
Русские субтитры: есть
Оригинальная аудиодорожка: есть
Описание: Видеопутеводитель по небесам и космосу.
1 серия: Как устроено небо
2 серия: Северные широты
Качество: DVDRip
Формат: AVI
Видео кодек: DivX
Аудио кодек: MP3
Видео: 576x432 25 fps ~900-1400 Kbps
Аудио: 48000 Hz stereo 96 kbps, 128 kbps constant

Скриншоты

1 серия

2 серия

MediaInfo

Серия 1
GeneralComplete name : M:\05. SpaceDust\01.Space\03.Europe\+BBC\2004 - Stargazing - A Graphic Guide to the Heavens\Stargazing. 1 of 4 - How the Sky Works.aviFormat : AVIFormat/Info : Audio Video InterleaveFile size : 349 MiBDuration : 29mn 55sOverall bit rate : 1 628 KbpsWriting application : VirtualDubMod 1.5.10.1 (build 2439/release)Writing library : VirtualDubMod build 2439/release
VideoID : 0Format : MPEG-4 VisualFormat settings, BVOP : 1Format settings, QPel : NoFormat settings, GMC : No warppointsFormat settings, Matrix : Default (H.263)Muxing mode : Packed bitstreamCodec ID : DX50Codec ID/Hint : DivX 5Duration : 29mn 55sBit rate : 1 491 KbpsWidth : 576 pixelsHeight : 432 pixelsDisplay aspect ratio : 4:3Frame rate : 25.000 fpsColor space : YUVChroma subsampling : 4:2:0Bit depth : 8 bitsScan type : ProgressiveCompression mode : LossyBits/(Pixel*Frame) : 0.240Stream size : 319 MiB (92%)Writing library : DivX 5.1.1 (Maupiti) (UTC 2003-11-19)
AudioID : 1Format : MPEG AudioFormat version : Version 1Format profile : Layer 3Mode : Joint stereoMode extension : MS StereoCodec ID : 55Codec ID/Hint : MP3Duration : 29mn 55sBit rate mode : ConstantBit rate : 128 KbpsChannel(s) : 2 channelsSampling rate : 48.0 KHzCompression mode : LossyStream size : 27.4 MiB (8%)Alignment : Aligned on interleavesInterleave, duration : 40 ms (1.00 video frame)Interleave, preload duration : 504 ms

Серия 2

GeneralComplete name : M:\05. SpaceDust\01.Space\03.Europe\+BBC\2004 - Stargazing - A Graphic Guide to the Heavens\Stargazing 2 of 4. Northern Latitudes.aviFormat : AVIFormat/Info : Audio Video InterleaveFile size : 525 MiBDuration : 1h 8mnOverall bit rate : 1 068 KbpsWriting application : VirtualDubMod 1.5.10.1 (build 2439/release)Writing library : VirtualDubMod build 2439/release
VideoID : 0Format : MPEG-4 VisualFormat settings, BVOP : 1Format settings, QPel : NoFormat settings, GMC : No warppointsFormat settings, Matrix : Default (H.263)Muxing mode : Packed bitstreamCodec ID : DX50Codec ID/Hint : DivX 5Duration : 1h 8mnBit rate : 964 KbpsWidth : 576 pixelsHeight : 432 pixelsDisplay aspect ratio : 4:3Frame rate : 25.000 fpsColor space : YUVChroma subsampling : 4:2:0Bit depth : 8 bitsScan type : ProgressiveCompression mode : LossyBits/(Pixel*Frame) : 0.155Stream size : 475 MiB (90%)Writing library : DivX 5.1.1 (Maupiti) (UTC 2003-11-19)
AudioID : 1Format : MPEG AudioFormat version : Version 1Format profile : Layer 3Mode : Joint stereoMode extension : MS StereoCodec ID : 55Codec ID/Hint : MP3Duration : 1h 8mnBit rate mode : ConstantBit rate : 96.0 KbpsChannel(s) : 2 channelsSampling rate : 32.0 KHzCompression mode : LossyStream size : 47.2 MiB (9%)Alignment : Aligned on interleavesInterleave, duration : 80 ms (2.00 video frames)Interleave, preload duration : 504 ms

Пример субтитров (от exitsub)

10000:10:54,520 --> 00:11:02,007Во время каждого оборота вокруг ЗемлиЛуна дважды пересекает эллиптическую плоскость вот здесь
10100:11:03,008 --> 00:11:03,708и здесь.
10200:11:04,442 --> 00:11:10,231Для того, чтобы произошло затмение,Земля, Луна и Солнце должны находится на линии пересечения.
10300:11:10,266 --> 00:11:15,176Представьте, что вы наблюдаете за Солнцем,когда происходит выравнивание, здесь будет полное затмение.
10400:11:17,425 --> 00:11:23,445Если пересечение имеет место на дальней от Солнца стороне Земли,это явление будет лунным затмением.
10500:11:23,680 --> 00:11:27,609Лунное затмение происходит так:
10600:11:27,644 --> 00:11:36,958Попадая в тень от Земли, Луна становится кроваво-красной,Непрямой свет Солнца искривляется и фильтруетсяземной атмосферой, после чего проецируется на поверхность Луны.
10700:11:39,466 --> 00:11:45,851Лунное затмение длится 1 и три четверти часаи всегда наблюдается на ночной стороне Земли.
10800:11:49,859 --> 00:11:57,125А вот солнечное затмение,но ввиду того, что орбита Луны слегка эллиптическая, данное затмение не является полным.
10900:11:57,160 --> 00:11:59,108Тень Луны накрыла нас не полностью.
11000:12:01,055 --> 00:12:08,987В результате имеем кольцевое затмение. Луна в самой дальней точке от Землислишком далеко, чтобы полностью затенить Солнце.

Пример субтитров (от Aelita XXII)

34700:33:29,794 --> 00:33:34,882Глядя из северного полушария на север,мы видим летние созвездия - Персея,
34800:33:36,288 --> 00:33:41,423Андромеда справа, и её родители -Кассиопея в центре и Цефей слева.
34900:33:43,628 --> 00:33:48,903При более широком обзоре - Большаяи Малая Медведица, Дракон и Волопас.
35000:33:55,334 --> 00:34:01,565Из средних широт северного полушария наюжном небе господствуют три ярких звезды:
35100:34:01,565 --> 00:34:04,765Денеб, Вега и Альтаир.
35200:34:05,040 --> 00:34:09,547Разместившись высоко в Млечном Пути,они образуют летний треугольник,
35300:34:09,547 --> 00:34:14,547не созвездие, а сезонный ориентирдля наблюдателей на севере.
35400:34:16,059 --> 00:34:20,562Справа от треугольника и затменныеВегой, его самой яркой участницей,
35500:34:20,562 --> 00:34:24,562лежат звёзды Геркулеса. Их трудноувидеть, и лучше всего определять
35600:34:24,562 --> 00:34:29,562по квадрату Краеугольного камняиз четырёх центральных звёзд.
35700:34:31,398 --> 00:34:35,137Южнее Геркулеса находится Змееносец,ещё одно тусклое созвездие.


Показать сообщения:    

Текущее время: 18-Дек 07:20

Часовой пояс: UTC ± 0


Вы не можете начинать темы
Вы не можете отвечать на сообщения
Вы не можете редактировать свои сообщения
Вы не можете удалять свои сообщения
Вы не можете голосовать в опросах
Вы не можете прикреплять файлы к сообщениям
Вы не можете скачивать файлы

!ВНИМАНИЕ!
Сайт не предоставляет электронные версии произведений, а занимается лишь коллекционированием и каталогизацией ссылок, присылаемых и публикуемых на форуме нашими читателями. Если вы являетесь правообладателем какого-либо представленного материала и не желаете, чтобы ссылка на него находилась в нашем каталоге, свяжитесь с нами, и мы незамедлительно удалим ее. Файлы для обмена на трекере предоставлены пользователями сайта, и администрация не несет ответственности за их содержание. Просьба не заливать файлы, защищенные авторскими правами, а также файлы нелегального содержания!