Важное объявление!
У Нас Все раздачи мультитрекерные, при нуле пиров в релизах, можете смело вставать на закачку!
 
Автор Сообщение

HUNTER

Стаж:
4 года 8 месяцев
Сообщений:
62020

Репутация: 101

[+] [-]
Вне форума [Профиль] [ЛС]

Астрал: Глава 2 / Insidious: Chapter 2

-
-Страна: США
Студия: Sony Pictures Entertainment, Blumhouse Productions, Entertainment One, FilmDistrict
Жанр: ужасы, триллер
Год выпуска: 2013
Продолжительность: 01:45:52--Перевод 1: Профессиональный (дублированный) Blu-ray
Перевод 2: Авторский (одноголосый закадровый) А. Дольский
Перевод 3: Одноголосый закадровый Doctor_Joker
Cубтитры: русские (Blu-ray; Дэн 107miller), английские (Full, SDH, SDH-COLORED)
Оригинальная аудиодорожка: английский--Режиссер: Джеймс Ван / James Wan
В ролях: Патрик Уилсон, Роуз Бирн, Лин Шэй, Тай Симпкинс, Барбара Херши, Стив Култер, Ли Уоннелл, Энгус Сэмпсон, Эндрю Эстор, Хэнк Харрис--Описание: Семья Ламберт стремится раскрыть тайну, из-за которой они оказались в опасной связи с миром духов…--imdb | kinopoisk | Сэмпл--Тип релиза: BDRip 720p [Insidious: Chapter 2 2013 720p BluRay DTS x264-LolHD]
Контейнер: MKV
Видео: MPEG-4 AVC / 6429 kbps / 1280x536 / 23,976 fps / 2,40:1 / High Profile 4.1
Аудио 1: Russian AC3 / 5.1 / 48 kHz / 640 kbps / 16 bits |Dub, Blu-ray|
Аудио 2: Russian AC3 / 5.1 / 48 kHz / 640 kbps / 16 bits |А. Дольский|
Аудио 3: Russian AC3 / 5.1 / 48 kHz / 640 kbps / 16 bits |Doctor_Joker|
Аудио 4: English AC3 / 5.1 / 48 kHz / 640 kbps / 16 bits |original|
Формат субтитров: softsub [SRT]

MediaInfo

Код:
Общее
Уникальный идентификатор                 : 229221281470549224456797016724442120778 (0xAC7269B98C66E139970000205F8B024A)
Полное имя                               : G:\HD\Астрал Глава 2.2013.BDRip.(720p).mkv
Формат                                   : Matroska
Версия формата                           : Version 2
Размер файла                             : 6,78 Гбайт
Продолжительность                        : 1 ч. 45 м.
Общий поток                              : 9171 Кбит/сек
Дата кодирования                         : UTC 2014-01-15 15:20:07
Программа кодирования                    : mkvmerge v5.8.0 ('No Sleep / Pillow') built on Sep  2 2012 15:37:04
Библиотека кодирования                   : libebml v1.2.3 + libmatroska v1.3.0
Attachment                               : Yes
Видео
Идентификатор                            : 1
Формат                                   : AVC
Формат/Информация                        : Advanced Video Codec
Профиль формата                          : High@L4.1
Параметр CABAC формата                   : Да
Параметр ReFrames формата                : 12 кадров
Идентификатор кодека                     : V_MPEG4/ISO/AVC
Продолжительность                        : 1 ч. 45 м.
Битрейт                                  : 6429 Кбит/сек
Ширина                                   : 1280 пикселей
Высота                                   : 536 пикселей
Соотношение сторон                       : 2,40:1
Режим частоты кадров                     : Постоянный
Частота кадров                           : 23,976 кадра/сек
Цветовое пространство                    : YUV
Субдискретизация насыщенности            : 4:2:0
Битовая глубина                          : 8 бит
Тип развёртки                            : Прогрессивная
Бит/(Пиксели*Кадры)                      : 0.391
Размер потока                            : 4,75 Гбайт (70%)
Заголовок                                : Insidious: Chapter 2 2013 720p BluRay DTS x264-LolHD
Библиотека кодирования                   : x264 core 129 r2245 bc13772
Настройки программы                      : cabac=1 / ref=12 / deblock=1:-3:-3 / analyse=0x3:0x133 / me=umh / subme=10 / psy=1 / psy_rd=1.05:0.00 / mixed_ref=1 / me_range=24 / chroma_me=1 / trellis=2 / 8x8dct=1 / cqm=0 / deadzone=21,11 / fast_pskip=0 / chroma_qp_offset=-2 / threads=12 / lookahead_threads=2 / sliced_threads=0 / nr=0 / decimate=0 / interlaced=0 / bluray_compat=0 / constrained_intra=0 / bframes=8 / b_pyramid=2 / b_adapt=2 / b_bias=0 / direct=3 / weightb=1 / open_gop=0 / weightp=2 / keyint=250 / keyint_min=23 / scenecut=40 / intra_refresh=0 / rc=crf / mbtree=0 / crf=14.5 / qcomp=0.75 / qpmin=0 / qpmax=69 / qpstep=4 / ip_ratio=1.40 / pb_ratio=1.30 / aq=1:0.75
Язык                                     : English
Default                                  : Да
Forced                                   : Нет
Аудио #1
Идентификатор                            : 2
Формат                                   : AC-3
Формат/Информация                        : Audio Coding 3
Расширение режима                        : CM (complete main)
Параметр Endianness формата              : Big
Идентификатор кодека                     : A_AC3
Продолжительность                        : 1 ч. 45 м.
Вид битрейта                             : Постоянный
Битрейт                                  : 640 Кбит/сек
Каналы                                   : 6 каналов
Расположение каналов                     : Front: L C R, Side: L R, LFE
Частота                                  : 48,0 КГц
Битовая глубина                          : 16 бит
Метод сжатия                             : С потерями
Размер потока                            : 485 Мбайт (7%)
Заголовок                                : Dub, Blu-ray
Язык                                     : Russian
Default                                  : Да
Forced                                   : Нет
Аудио #2
Идентификатор                            : 3
Формат                                   : AC-3
Формат/Информация                        : Audio Coding 3
Расширение режима                        : CM (complete main)
Параметр Endianness формата              : Big
Идентификатор кодека                     : A_AC3
Продолжительность                        : 1 ч. 45 м.
Вид битрейта                             : Постоянный
Битрейт                                  : 640 Кбит/сек
Каналы                                   : 6 каналов
Расположение каналов                     : Front: L C R, Side: L R, LFE
Частота                                  : 48,0 КГц
Битовая глубина                          : 16 бит
Метод сжатия                             : С потерями
Размер потока                            : 485 Мбайт (7%)
Заголовок                                : А. Дольский
Язык                                     : Russian
Default                                  : Нет
Forced                                   : Нет
Аудио #3
Идентификатор                            : 4
Формат                                   : AC-3
Формат/Информация                        : Audio Coding 3
Расширение режима                        : CM (complete main)
Параметр Endianness формата              : Big
Идентификатор кодека                     : A_AC3
Продолжительность                        : 1 ч. 45 м.
Вид битрейта                             : Постоянный
Битрейт                                  : 640 Кбит/сек
Каналы                                   : 6 каналов
Расположение каналов                     : Front: L C R, Side: L R, LFE
Частота                                  : 48,0 КГц
Битовая глубина                          : 16 бит
Метод сжатия                             : С потерями
Размер потока                            : 485 Мбайт (7%)
Заголовок                                : Doctor_Joker
Язык                                     : Russian
Default                                  : Нет
Forced                                   : Нет
Аудио #4
Идентификатор                            : 5
Формат                                   : AC-3
Формат/Информация                        : Audio Coding 3
Расширение режима                        : CM (complete main)
Параметр Endianness формата              : Big
Идентификатор кодека                     : A_AC3
Продолжительность                        : 1 ч. 45 м.
Вид битрейта                             : Постоянный
Битрейт                                  : 640 Кбит/сек
Каналы                                   : 6 каналов
Расположение каналов                     : Front: L C R, Side: L R, LFE
Частота                                  : 48,0 КГц
Битовая глубина                          : 16 бит
Метод сжатия                             : С потерями
Размер потока                            : 485 Мбайт (7%)
Язык                                     : English
Default                                  : Нет
Forced                                   : Нет
Текст #1
Идентификатор                            : 6
Формат                                   : UTF-8
Идентификатор кодека                     : S_TEXT/UTF8
Идентификатор кодека/Информация          : UTF-8 Plain Text
Заголовок                                : Blu-ray
Язык                                     : Russian
Default                                  : Нет
Forced                                   : Нет
Текст #2
Идентификатор                            : 7
Формат                                   : UTF-8
Идентификатор кодека                     : S_TEXT/UTF8
Идентификатор кодека/Информация          : UTF-8 Plain Text
Заголовок                                : Дэн 107miller
Язык                                     : Russian
Default                                  : Нет
Forced                                   : Нет
Текст #3
Идентификатор                            : 8
Формат                                   : UTF-8
Идентификатор кодека                     : S_TEXT/UTF8
Идентификатор кодека/Информация          : UTF-8 Plain Text
Заголовок                                : full
Язык                                     : English
Default                                  : Нет
Forced                                   : Нет
Текст #4
Идентификатор                            : 9
Формат                                   : UTF-8
Идентификатор кодека                     : S_TEXT/UTF8
Идентификатор кодека/Информация          : UTF-8 Plain Text
Заголовок                                : SDH
Язык                                     : English
Default                                  : Нет
Forced                                   : Нет
Текст #5
Идентификатор                            : 10
Формат                                   : UTF-8
Идентификатор кодека                     : S_TEXT/UTF8
Идентификатор кодека/Информация          : UTF-8 Plain Text
Заголовок                                : SDH-COLORED
Язык                                     : English
Default                                  : Нет
Forced                                   : Нет
Меню
00:00:00.000                             : en:00:00:00.000
00:12:45.890                             : en:00:12:45.890
00:22:22.967                             : en:00:22:22.967
00:26:03.228                             : en:00:26:03.228
00:30:09.224                             : en:00:30:09.224
00:37:31.583                             : en:00:37:31.583
00:42:46.314                             : en:00:42:46.314
00:48:49.468                             : en:00:48:49.468
00:56:11.702                             : en:00:56:11.702
00:59:41.661                             : en:00:59:41.661
01:05:57.579                             : en:01:05:57.579
01:14:33.344                             : en:01:14:33.344
01:21:37.351                             : en:01:21:37.351
01:27:31.413                             : en:01:27:31.413
01:33:33.858                             : en:01:33:33.858
01:38:59.433                             : en:01:38:59.433

Скриншоты


Дополнительно

Цитата:

За дубляж и сабы спасибо HDCLUB
Перевод Doctor_Joker доступен благодаря dikii. Работа со звуком - Переводман.
За перевода А. Дольского спасибо пользователям форума е180: fen, zeleniy, Splinter, rammzez, michael_p2004, semargl, dark1982, safreks, luka69, carnivale, fryak, kRIPtograf, Мr. Di, Диммон, Iceman, zaq-qaz, каак, idalgo, Марлон, masta, maximus10-99, SavineX78, STONECOLD

Insidious: Chapter 2 2013 720p BluRay DTS x264-LolHD

Код:
.GENERAL iNFORMATiON
iMDB.LiNK.....: http://www.imdb.com/title/tt2226417/
iMDB.RATiNG...: 6.9/10 from 22,940 users
GENRE.........: Horror | Thriller
.RELEASE iNFORMATiON
RELEASE NAME..: Insidious.Chapter.2.2013.720p.BluRay.DTS.x264-LolHD
RELEASE SiZE..: 6.02 GiB
RUNTiME.......: 1h 45mn
ViDEO CODEC...: x264, crf, High@L4.1
FRAMERATE.....: 23.976 fps
BiTRATE.......: 6 467 Kbps
ASPECT RATiO..: 2.40:1
RESOLUTiON....: 1280x536
AUDiO.........: English DTS  6ch @ 1 510 Kbps
CHAPTERS......: Numbered like on Blu-ray
SOURCE........: Insidious: Chapter 2 2013 1080p Blu-ray AVC DTS-HD MA 5.1-HDWinG
SUBTiTLES.....: Vietnamese(PDV-ASS),Vietnamese(PDV-SRT),English(PGS),English(PGS), Spanish(PGS)
.POST iNFOMATiON
ENCODER.......: AraGorN@LolHD
RELEASE.DATE..: 09/12/2013
.x264 LOG
x264 [info]: frame I:1243  Avg QP:10.65  size:134728
x264 [info]: frame P:30691 Avg QP:12.07  size: 70466
x264 [info]: frame B:120370 Avg QP:14.29  size: 24239
encoded 152304 frames, 3.54 fps, 6608.97 kb/s
.NOTES
Dirty lines were fixed!
COMPARISON SCREENSHOTS
SOURCE_________________S. FILTERED______________LolHD__________________HDWinG_________________СHD





_________________
Показать сообщения:    

Текущее время: Сегодня 11:08

Часовой пояс: GMT



Вы не можете начинать темы
Вы не можете отвечать на сообщения
Вы не можете редактировать свои сообщения
Вы не можете удалять свои сообщения
Вы не можете голосовать в опросах
Вы не можете прикреплять файлы к сообщениям
Вы не можете скачивать файлы
Наши партнеры: интернет магазин Ивановского трикотажа textilla.ru