Ивановский Торрент трекер
Яндекс.Погода
 

[Цитировать]
HUNTER

Астрал: Глава 2 / Insidious: Chapter 2

-
-Страна: США
Студия: Sony Pictures Entertainment, Blumhouse Productions, Entertainment One, FilmDistrict
Жанр: ужасы, триллер
Год выпуска: 2013
Продолжительность: 01:45:52--Перевод 1: Профессиональный (дублированный) Blu-ray
Перевод 2: Авторский (одноголосый закадровый) А. Дольский
Перевод 3: Одноголосый закадровый Doctor_Joker
Cубтитры: русские (Blu-ray; Дэн 107miller), английские (Full, SDH, SDH-COLORED)
Оригинальная аудиодорожка: английский--Режиссер: Джеймс Ван / James Wan
В ролях: Патрик Уилсон, Роуз Бирн, Лин Шэй, Тай Симпкинс, Барбара Херши, Стив Култер, Ли Уоннелл, Энгус Сэмпсон, Эндрю Эстор, Хэнк Харрис--Описание: Семья Ламберт стремится раскрыть тайну, из-за которой они оказались в опасной связи с миром духов…--imdb | kinopoisk | Сэмпл--Тип релиза: BDRip 1080p [Insidious: Chapter 2 2013 1080p BluRay DTS x264-CtrlHD]
Контейнер: MKV
Видео: MPEG-4 AVC / 10,7 Mbps / 1920x802 / 23,976 fps / 2,40:1 / High Profile 4.1
Аудио 1: Russian AC3 / 5.1 / 48 kHz / 640 kbps / 16 bits |Dub, Blu-ray|
Аудио 2: Russian DTS / 5.1 / 48 kHz / 1509 kbps / 16 bits |А. Дольский|
Аудио 3: Russian DTS / 5.1 / 48 kHz / 1509 kbpss / 16 bits |Doctor_Joker|
Аудио 4: English DTS / 5.1 / 48 kHz / 1509 kbpss / 16 bits |original|
Формат субтитров: softsub [SRT]

MediaInfo

Общее
Уникальный идентификатор                 : 193142739697300257589850915279213407138 (0x914DF0479776CD54B91E600BDB2BABA2)
Полное имя                               : G:\HD\Астрал Глава 2.2013.BDRip.(1080p).mkv
Формат                                   : Matroska
Версия формата                           : Version 2
Размер файла                             : 11,7 Гбайт
Продолжительность                        : 1 ч. 45 м.
Общий поток                              : 15,8 Мбит/сек
Дата кодирования                         : UTC 2014-01-15 16:07:19
Программа кодирования                    : mkvmerge v5.8.0 ('No Sleep / Pillow') built on Sep  2 2012 15:37:04
Библиотека кодирования                   : libebml v1.2.3 + libmatroska v1.3.0
Attachment                               : Yes
Видео
Идентификатор                            : 1
Формат                                   : AVC
Формат/Информация                        : Advanced Video Codec
Профиль формата                          : High@L4.1
Параметр CABAC формата                   : Да
Параметр ReFrames формата                : 5 кадров
Идентификатор кодека                     : V_MPEG4/ISO/AVC
Продолжительность                        : 1 ч. 45 м.
Битрейт                                  : 10,7 Мбит/сек
Ширина                                   : 1920 пикселей
Высота                                   : 802 пикселя
Соотношение сторон                       : 2,40:1
Режим частоты кадров                     : Постоянный
Частота кадров                           : 23,976 кадра/сек
Цветовое пространство                    : YUV
Субдискретизация насыщенности            : 4:2:0
Битовая глубина                          : 8 бит
Тип развёртки                            : Прогрессивная
Бит/(Пиксели*Кадры)                      : 0.289
Размер потока                            : 7,65 Гбайт (65%)
Заголовок                                : Insidious: Chapter 2 2013 1080p BluRay DTS x264-CtrlHD
Библиотека кодирования                   : x264 core 133 r2334 a3ac64b
Настройки программы                      : cabac=1 / ref=5 / deblock=1:-3:-3 / analyse=0x3:0x113 / me=tesa / subme=11 / psy=1 / psy_rd=1.05:0.05 / mixed_ref=1 / me_range=32 / chroma_me=1 / trellis=2 / 8x8dct=1 / cqm=0 / deadzone=21,11 / fast_pskip=0 / chroma_qp_offset=-5 / threads=12 / lookahead_threads=2 / sliced_threads=0 / nr=0 / decimate=0 / interlaced=0 / bluray_compat=0 / constrained_intra=0 / bframes=8 / b_pyramid=2 / b_adapt=2 / b_bias=0 / direct=3 / weightb=1 / open_gop=0 / weightp=2 / keyint=250 / keyint_min=23 / scenecut=40 / intra_refresh=0 / rc=2pass / mbtree=0 / bitrate=10657 / ratetol=1.0 / qcomp=0.70 / qpmin=0 / qpmax=69 / qpstep=4 / cplxblur=20.0 / qblur=0.5 / ip_ratio=1.20 / pb_ratio=1.30 / aq=1:0.85
Язык                                     : English
Default                                  : Да
Forced                                   : Нет
Аудио #1
Идентификатор                            : 2
Формат                                   : AC-3
Формат/Информация                        : Audio Coding 3
Расширение режима                        : CM (complete main)
Параметр Endianness формата              : Big
Идентификатор кодека                     : A_AC3
Продолжительность                        : 1 ч. 45 м.
Вид битрейта                             : Постоянный
Битрейт                                  : 640 Кбит/сек
Каналы                                   : 6 каналов
Расположение каналов                     : Front: L C R, Side: L R, LFE
Частота                                  : 48,0 КГц
Битовая глубина                          : 16 бит
Метод сжатия                             : С потерями
Размер потока                            : 485 Мбайт (4%)
Заголовок                                : Dub, Blu-ray
Язык                                     : Russian
Default                                  : Да
Forced                                   : Нет
Аудио #2
Идентификатор                            : 3
Формат                                   : DTS
Формат/Информация                        : Digital Theater Systems
Режим                                    : 16
Параметр Endianness формата              : Big
Идентификатор кодека                     : A_DTS
Продолжительность                        : 1 ч. 45 м.
Вид битрейта                             : Постоянный
Битрейт                                  : 1509 Кбит/сек
Каналы                                   : 6 каналов
Расположение каналов                     : Front: L C R, Side: L R, LFE
Частота                                  : 48,0 КГц
Битовая глубина                          : 16 бит
Метод сжатия                             : С потерями
Размер потока                            : 1,12 Гбайт (10%)
Заголовок                                : А. Дольский
Язык                                     : Russian
Default                                  : Нет
Forced                                   : Нет
Аудио #3
Идентификатор                            : 4
Формат                                   : DTS
Формат/Информация                        : Digital Theater Systems
Режим                                    : 16
Параметр Endianness формата              : Big
Идентификатор кодека                     : A_DTS
Продолжительность                        : 1 ч. 45 м.
Вид битрейта                             : Постоянный
Битрейт                                  : 1509 Кбит/сек
Каналы                                   : 6 каналов
Расположение каналов                     : Front: L C R, Side: L R, LFE
Частота                                  : 48,0 КГц
Битовая глубина                          : 16 бит
Метод сжатия                             : С потерями
Размер потока                            : 1,12 Гбайт (10%)
Заголовок                                : Doctor_Joker
Язык                                     : Russian
Default                                  : Нет
Forced                                   : Нет
Аудио #4
Идентификатор                            : 5
Формат                                   : DTS
Формат/Информация                        : Digital Theater Systems
Режим                                    : 16
Параметр Endianness формата              : Big
Идентификатор кодека                     : A_DTS
Продолжительность                        : 1 ч. 45 м.
Вид битрейта                             : Постоянный
Битрейт                                  : 1509 Кбит/сек
Каналы                                   : 6 каналов
Расположение каналов                     : Front: L C R, Side: L R, LFE
Частота                                  : 48,0 КГц
Битовая глубина                          : 16 бит
Метод сжатия                             : С потерями
Размер потока                            : 1,12 Гбайт (10%)
Язык                                     : English
Default                                  : Нет
Forced                                   : Нет
Текст #1
Идентификатор                            : 6
Формат                                   : UTF-8
Идентификатор кодека                     : S_TEXT/UTF8
Идентификатор кодека/Информация          : UTF-8 Plain Text
Заголовок                                : Blu-ray
Язык                                     : Russian
Default                                  : Нет
Forced                                   : Нет
Текст #2
Идентификатор                            : 7
Формат                                   : UTF-8
Идентификатор кодека                     : S_TEXT/UTF8
Идентификатор кодека/Информация          : UTF-8 Plain Text
Заголовок                                : Дэн 107miller
Язык                                     : Russian
Default                                  : Нет
Forced                                   : Нет
Текст #3
Идентификатор                            : 8
Формат                                   : UTF-8
Идентификатор кодека                     : S_TEXT/UTF8
Идентификатор кодека/Информация          : UTF-8 Plain Text
Заголовок                                : full
Язык                                     : English
Default                                  : Нет
Forced                                   : Нет
Текст #4
Идентификатор                            : 9
Формат                                   : UTF-8
Идентификатор кодека                     : S_TEXT/UTF8
Идентификатор кодека/Информация          : UTF-8 Plain Text
Заголовок                                : SDH
Язык                                     : English
Default                                  : Нет
Forced                                   : Нет
Текст #5
Идентификатор                            : 10
Формат                                   : UTF-8
Идентификатор кодека                     : S_TEXT/UTF8
Идентификатор кодека/Информация          : UTF-8 Plain Text
Заголовок                                : SDH-COLORED
Язык                                     : English
Default                                  : Нет
Forced                                   : Нет
Меню
00:00:00.000                             : en:00:00:00.000
00:12:45.890                             : en:00:12:45.890
00:22:22.967                             : en:00:22:22.967
00:26:03.228                             : en:00:26:03.228
00:30:09.224                             : en:00:30:09.224
00:37:31.583                             : en:00:37:31.583
00:42:46.314                             : en:00:42:46.314
00:48:49.468                             : en:00:48:49.468
00:56:11.702                             : en:00:56:11.702
00:59:41.661                             : en:00:59:41.661
01:05:57.579                             : en:01:05:57.579
01:14:33.344                             : en:01:14:33.344
01:21:37.351                             : en:01:21:37.351
01:27:31.413                             : en:01:27:31.413
01:33:33.858                             : en:01:33:33.858
01:38:59.433                             : en:01:38:59.433

Скриншоты


Дополнительно

За дубляж и сабы спасибо HDCLUB
Перевод Doctor_Joker доступен благодаря dikii. Работа со звуком - Переводман.
За перевода А. Дольского спасибо пользователям форума е180: fen, zeleniy, Splinter, rammzez, michael_p2004, semargl, dark1982, safreks, luka69, carnivale, fryak, kRIPtograf, Мr. Di, Диммон, Iceman, zaq-qaz, каак, idalgo, Марлон, masta, maximus10-99, SavineX78, STONECOLD

Insidious: Chapter 2 2013 1080p BluRay DTS x264-CtrlHD

.GENERAL iNFORMATiON
RUNTiME.......: 1h:45m:35s
SiZE..........: 9.0 GB
ViDEO.CODEC...: x264,2pass, L4.1
FRAMERATE.....: 23.976fps
BiTRATE.......: 10.7 Mbps
RESOLUTiON....: 1920x802
AUDiO.........: English DTS 5.1 @ 1.5 Mbps
SUBTiTLES.....: English
SUBS.FORMAT...: srt
CHAPTERS......: Yes, marked as BD embedded
SOURCE........: US Blu-ray AVC DTS-HD MA 5.1-CHDBits
iMDB.RATiNG...: 6.9/10 from 24,906 users
iMDB.LiNK.....: http://www.imdb.com/title/tt2226417/
Encoder.......: iNK
.Notes
Special thanks to all the CtrlHD members!
Source vs. CtrlHD


.x264.Info
x264 [info]: profile High, level 4.1
x264 [info]: frame I:1057  Avg QP:14.19  size:231491
x264 [info]: frame P:33728 Avg QP:15.38  size:114955
x264 [info]: frame B:117519 Avg QP:17.68  size: 36911
x264 [info]: consecutive B-frames:  2.7%  3.0%  6.7% 22.8% 17.7% 26.7%  9.5%  9.
2%  1.6%
x264 [info]: mb I  I16..4:  3.6% 89.5%  6.9%
x264 [info]: mb P  I16..4:  0.9% 26.0%  0.9%  P16..4: 24.5% 32.5% 14.1%  0.0%  0
.0%    skip: 1.1%
x264 [info]: mb B  I16..4:  0.1%  1.3%  0.1%  B16..8: 36.3% 28.3%  5.9%  direct:
6.6%  skip:21.5%  L0:47.8% L1:44.0% BI: 8.2%
x264 [info]: 8x8 transform intra:92.4% inter:60.1%
x264 [info]: direct mvs  spatial:98.0% temporal:2.0%
x264 [info]: coded y,uvDC,uvAC intra: 93.8% 94.7% 90.5% inter: 30.3% 41.6% 26.7%
x264 [info]: i16 v,h,dc,p: 25% 11%  8% 56%
x264 [info]: i8 v,h,dc,ddl,ddr,vr,hd,vl,hu: 10%  6% 16% 11% 12% 11% 11% 11% 12%
x264 [info]: i4 v,h,dc,ddl,ddr,vr,hd,vl,hu: 41%  5%  6%  7%  9% 10%  8%  8%  7%
x264 [info]: i8c dc,h,v,p: 64% 13% 12% 11%
x264 [info]: Weighted P-Frames: Y:11.8% UV:8.1%
x264 [info]: ref P L0: 48.2%  5.6% 25.8%  9.2%  9.4%  1.5%  0.2%
x264 [info]: ref B L0: 79.9% 14.6%  4.0%  1.5%
x264 [info]: ref B L1: 94.6%  5.4%
x264 [info]: kb/s:10653.87
encoded 152304 frames, 1.68 fps, 10653.87 kb/s
Показать сообщения:    

Текущее время: 21-Сен 07:39

Часовой пояс: UTC - 1


Вы не можете начинать темы
Вы не можете отвечать на сообщения
Вы не можете редактировать свои сообщения
Вы не можете удалять свои сообщения
Вы не можете голосовать в опросах
Вы не можете прикреплять файлы к сообщениям
Вы не можете скачивать файлы

!ВНИМАНИЕ!
Сайт не предоставляет электронные версии произведений, а занимается лишь коллекционированием и каталогизацией ссылок, присылаемых и публикуемых на форуме нашими читателями. Если вы являетесь правообладателем какого-либо представленного материала и не желаете, чтобы ссылка на него находилась в нашем каталоге, свяжитесь с нами, и мы незамедлительно удалим ее. Файлы для обмена на трекере предоставлены пользователями сайта, и администрация не несет ответственности за их содержание. Просьба не заливать файлы, защищенные авторскими правами, а также файлы нелегального содержания!