Ивановский Торрент трекер
Яндекс.Погода
 

[Цитировать]
HUNTER

Астерикс: Земля Богов / Asterix: Le domaine des dieux--

  • Год выпуска: 2014
  • Страна: Франция
  • Жанр: Мультфильм, приключения, фэнтези, комедия
  • Продолжительность: 01:21:58
  • Перевод: Дублированный [iTunes]
  • Субтитры: Нет
  • Роли дублировали: Вадим Галыгин, Даниил Эльдаров, Денис Беспалый, Денис Строев, Кирилл Туранский
  • Режиссёр: Луис Клиши, Александр Астье

    Астерикс и его лучший друг Обеликс продолжают свою многолетнюю борьбу с Цезарем, который хочет наконец-то расправиться с неукротимыми галлами. Вокруг деревни Астерикса Цезарь приказывает построить новый Рим — Землю Богов. В галльской деревне хаос и смятение. Но Астерикс и Обеликс не сдаются!--
  • Качество: WEB DLRip-AVC
  • Формат: MKV
  • Видео кодек: AVC
  • Аудио кодек: AC3
  • Видео: AVC at 2197 Кбит/сек, 1024 x 576 at 25.000 fps
  • Аудио: AC3 at 384 Кбит/сек, 6 каналов, 48,0 КГц
--

MI

Код: copyText_writeLink('this.parentNode.parentNode.nextSibling.nextSibling');
Формат                                   : Matroska
Версия формата                           : Version 2
Размер файла                             : 1,48 Гбайт
Продолжительность                        : 1 ч. 21 м.
Общий поток                              : 2583 Кбит/сек
Дата кодирования                         : UTC 2015-01-30 00:39:09
Программа кодирования                    : mkvmerge v6.1.0 ('Old Devil') built on Mar  4 2013 09:10:42
Библиотека кодирования                   : libebml v1.3.0 + libmatroska v1.4.0
Видео
Идентификатор                            : 1
Формат                                   : AVC
Формат/Информация                        : Advanced Video Codec
Профиль формата                          : High@L4.1
Параметр CABAC формата                   : Да
Параметр ReFrames формата                : 10 кадров
Идентификатор кодека                     : V_MPEG4/ISO/AVC
Продолжительность                        : 1 ч. 21 м.
Битрейт                                  : 2197 Кбит/сек
Ширина                                   : 1024 пикселя
Высота                                   : 576 пикселей
Соотношение сторон                       : 16:9
Режим частоты кадров                     : Постоянный
Частота кадров                           : 25,000 кадров/сек
Цветовое пространство                    : YUV
Субдискретизация насыщенности            : 4:2:0
Битовая глубина                          : 8 бит
Тип развёртки                            : Прогрессивная
Бит/(Пиксели*Кадры)                      : 0.149
Размер потока                            : 1,23 Гбайт (83%)
Библиотека кодирования                   : x264 core 130 r2273 b3065e6
Настройки программы                      : cabac=1 / ref=10 / deblock=1:-1:-2 / analyse=0x3:0x133 / me=umh / subme=11 / psy=1 / psy_rd=1.00:0.10 / mixed_ref=1 / me_range=32 / chroma_me=1 / trellis=2 / 8x8dct=1 / cqm=0 / deadzone=21,11 / fast_pskip=0 / chroma_qp_offset=-3 / threads=6 / lookahead_threads=1 / sliced_threads=0 / nr=0 / decimate=0 / interlaced=0 / bluray_compat=0 / constrained_intra=0 / bframes=3 / b_pyramid=2 / b_adapt=2 / b_bias=0 / direct=3 / weightb=1 / open_gop=0 / weightp=2 / keyint=250 / keyint_min=25 / scenecut=40 / intra_refresh=0 / rc_lookahead=50 / rc=2pass / mbtree=1 / bitrate=2197 / ratetol=1.0 / qcomp=0.60 / qpmin=0 / qpmax=69 / qpstep=4 / cplxblur=20.0 / qblur=0.5 / ip_ratio=1.40 / aq=1:1.00
Default                                  : Да
Forced                                   : Нет
Аудио
Идентификатор                            : 2
Формат                                   : AC-3
Формат/Информация                        : Audio Coding 3
Расширение режима                        : CM (complete main)
Параметр Endianness формата              : Big
Идентификатор кодека                     : A_AC3
Продолжительность                        : 1 ч. 21 м.
Вид битрейта                             : Постоянный
Битрейт                                  : 384 Кбит/сек
Каналы                                   : 6 каналов
Расположение каналов                     : Front: L C R, Side: L R, LFE
Частота                                  : 48,0 КГц
Битовая глубина                          : 16 бит
Метод сжатия                             : С потерями
Размер потока                            : 225 Мбайт (15%)
Default                                  : Да
Forced                                   : Нет

Трейлер

Скриншоты



Показать сообщения:    

Текущее время: 14-Дек 04:26

Часовой пояс: UTC ± 0


Вы не можете начинать темы
Вы не можете отвечать на сообщения
Вы не можете редактировать свои сообщения
Вы не можете удалять свои сообщения
Вы не можете голосовать в опросах
Вы не можете прикреплять файлы к сообщениям
Вы не можете скачивать файлы

!ВНИМАНИЕ!
Сайт не предоставляет электронные версии произведений, а занимается лишь коллекционированием и каталогизацией ссылок, присылаемых и публикуемых на форуме нашими читателями. Если вы являетесь правообладателем какого-либо представленного материала и не желаете, чтобы ссылка на него находилась в нашем каталоге, свяжитесь с нами, и мы незамедлительно удалим ее. Файлы для обмена на трекере предоставлены пользователями сайта, и администрация не несет ответственности за их содержание. Просьба не заливать файлы, защищенные авторскими правами, а также файлы нелегального содержания!