Важное объявление!
У Нас Все раздачи мультитрекерные, при нуле пиров в релизах, можете смело вставать на закачку!
 
Автор Сообщение

HUNTER

Стаж:
4 года 6 месяцев
Сообщений:
61017

Репутация: 101

[+] [-]
Вне форума [Профиль] [ЛС]

Артур и война двух миров / Arthur et la guerre des deux mondes
Страна: Франция
Жанр: фэнтези, приключения, семейный
Продолжительность: 01:41:09
Год выпуска: 2010
Перевод: Профессиональный (дублированный)
Русские субтитры: нет
Режиссёр: Люк Бессон / Luc Besson
Роли озвучивали:
Селена Гомес
Фредди Хаймор
Джимми Фэллон
Миа Фэрроу
Игги Поп
Роберт Стэнтон
Лу Рид
Пенни Бальфур
Жан-Поль Рув
Майк Пауэрс
Роли дублировали:
Филипп Бледный
Диомид Виноградов
Владимир Зайцев
Мария Кожевникова
Дмитрий Курта
Описание:
Какие дьявольские планы собирается осуществить Урдалак, чтобы завоевать новый мир, в который он переместился обманным путем? Как Артур, оставшийся в мире минипутов, сможет победить жестокого Ужасного У? Чтобы сохранить любовь прекрасной принцессы Селении, Артур готов вступить в бой против Урдалака как в мире минипутов, так и в большом реальном мире…
Доп. информация:
5.699 (1 487)
5.5/10 (414 votes)
Качество: BDRip, исходник - Blu-ray disc 1080р
Формат: AVI
Видео: 640x272 (2.35:1), 23.976 fps, XviD build 61 ~897 kbps avg, 0.22 bit/pixel
Аудио: 48 kHz, MPEG Layer 3, 2 ch, ~128.00 kbps avg

MediaInfo

ОбщееПолное имя : ...Артур и война двух миров_745.aviФормат : AVIФормат/Информация : Audio Video InterleaveРазмер файла : 749 МбайтПродолжительность : 1 ч. 41 м.Общий поток : 1035 Кбит/секПрограмма кодирования : VirtualDubMod 1.5.10.3 | www.virtualdub-fr.org || (build 2550/release)Библиотека кодирования : VirtualDubMod build 2550/release
ВидеоИдентификатор : 0Формат : MPEG-4 VisualПрофиль формата : Advanced Simple@L5Параметр BVOP формата : 1Параметр QPel формата : НетПараметр GMC формата : Без точки переходаПараметр матрицы формата : ВыборочнаяИдентификатор кодека : XVIDИдентификатор кодека/Подсказка : XviDПродолжительность : 1 ч. 41 м.Битрейт : 898 Кбит/секШирина : 640 пикс.Высота : 272 пикс.Соотношение сторон : 2,35:1Частота кадров : 23,976 кадр/секЦветовое пространство : YUVПодвыборка цветности : 4:2:0Битовая глубина : 8 битТип развёртки : ПрогрессивнаяМетод сжатия : С потерямиБит/(Пиксели*Кадры) : 0.215Размер потока : 649 Мбайт (87%)Библиотека кодирования : XviD 61
АудиоИдентификатор : 1Формат : MPEG AudioВерсия формата : Version 1Профиль формата : Layer 3Идентификатор кодека : 55Идентификатор кодека/Подсказка : MP3Продолжительность : 1 ч. 41 м.Вид битрейта : ПостоянныйБитрейт : 128 Кбит/секКанал(ы) : 2 канала(ов)Частота : 48,0 КГцМетод сжатия : С потерямиРазмер потока : 92,6 Мбайт (12%)Выравнивание : Соединение по промежуткамПродолжительность промежутка : 42 мс. (1,00 видеокадр)Время предзагрузки промежутка : 504 msБиблиотека кодирования : LAME3.98rНастройки программы : -m s -V 4 -q 0 -lowpass 17 -b 128

Скриншоты


_________________
Показать сообщения:    

Текущее время: Сегодня 22:25

Часовой пояс: GMT



Вы не можете начинать темы
Вы не можете отвечать на сообщения
Вы не можете редактировать свои сообщения
Вы не можете удалять свои сообщения
Вы не можете голосовать в опросах
Вы не можете прикреплять файлы к сообщениям
Вы не можете скачивать файлы
Наши партнеры: интернет магазин Ивановского трикотажа textilla.ru