Артур. Идеальный миллионер / Arthur (Джейсон Уайнер / Jason Winer) [2011, США, Комедия, BDRip 1080p] MVO Sub Eng + Original Eng :: Ивановский Торрент трекер
Важное объявление!
У Нас Все раздачи мультитрекерные, при нуле пиров в релизах, можете смело вставать на закачку!
Статистика раздачи
Размер:     |    Зарегистрирован:     |    Скачан:     |   
Нет
 
     
 
 
Автор Сообщение

димитри37

Стаж:
4 года 3 месяца
Сообщений:
1236

Репутация: 127

[+] [-]
Вне форума [Профиль] [ЛС]

Артур. Идеальный миллионер / Arthur
Страна: США
Студия: Warner Bros. Pictures, Morra, Brezner, Steinberg and Tenenbaum Entertainment (MBST), BenderSpink
Жанр: Комедия
Год выпуска: 2011
Продолжительность: 01:49:58
Перевод: Профессиональный (многоголосый закадровый) R5
Cубтитры: английские
Оригинальная аудиодорожка: английский
Режиссер: Джейсон Уайнер / Jason Winer
В ролях: Расселл Брэнд, Хелен Миррен, Грета Гервиг, Дженнифер Гарнер, Джеральдин Джеймс, Луис Гузман, Ник Нолти, Кристина Калф, Мерфи Гайер, Хосе Рамон Росарио
Описание: Артур Бэч, попадая в жизненные передряги, всегда полагался на две вещи: свое огромное состояние и здравомыслие собственной няньки Хобсон. Но теперь ему придется сделать выбор между браком по расчету, который еще более укрепит его финансовое положение, и неопределенным будущим с единственным, что нельзя купить за деньги, — прекрасной Наоми, любовью всей его жизни. Учитывая воодушевленность Наоми и нестандартную помощь Хобсон, Артур бросается в омут с головой в наиболее рискованное приключение всей своей жизни и наконец узнаёт, что значит быть настоящим мужчиной.
Сэмпл: http://multi-up.com/561010
Тип релиза: BDRip 1080p
Контейнер: MKV
Видео: MPEG-4 AVC, 9827 Кбит/с, 1920x1080, 23.976 кадр/с
Аудио: Русский (AC3, 2 ch, 192 Kbps, 48 KHz)
Аудио 2: Английский (DTS, 6 ch, 1536 Кбит/с, 48 KHz)

MediaInfo

General
Complete name : D:\Artur.Idealnyj.millioner.2011.x264.BDRip.(1080p).mkv
Format : Matroska
File size : 8.84 GiB
Duration : 1h 49mn
Overall bit rate : 11.5 Mbps
Movie name : Arthur (2011) - Release for Uniongang.tv
Encoded date : UTC 2011-09-21 05:24:36
Writing application : mkvmerge v4.3.0 ('Escape from the Island') сборка от Sep 5 2010 10:30:51
Writing library : libebml v1.0.0 + libmatroska v1.0.0
Video
ID : 1
Format : AVC
Format/Info : Advanced Video Codec
Format profile : High@L4.1
Format settings, CABAC : Yes
Format settings, ReFrames : 4 frames
Muxing mode : Container profile=Unknown@4.1
Codec ID : V_MPEG4/ISO/AVC
Duration : 1h 49mn
Bit rate : 9 573 Kbps
Nominal bit rate : 9 827 Kbps
Width : 1 920 pixels
Height : 1 080 pixels
Display aspect ratio : 16:9
Frame rate : 23.976 fps
Resolution : 8 bits
Colorimetry : 4:2:0
Scan type : Progressive
Bits/(Pixel*Frame) : 0.193
Stream size : 7.35 GiB (83%)
Writing library : x264 core 114 r1924 08d04a4
Encoding settings : cabac=1 / ref=4 / deblock=1:-3:-3 / analyse=0x3:0x113 / me=umh / subme=9 / psy=1 / psy_rd=1.05:0.10 / mixed_ref=1 / me_range=32 / chroma_me=1 / trellis=2 / 8x8dct=1 / cqm=2 / deadzone=21,11 / fast_pskip=0 / chroma_qp_offset=-2 / threads=12 / sliced_threads=0 / nr=0 / decimate=1 / interlaced=0 / constrained_intra=0 / bframes=6 / b_pyramid=2 / b_adapt=2 / b_bias=0 / direct=3 / weightb=1 / open_gop=0 / weightp=2 / keyint=250 / keyint_min=23 / scenecut=40 / intra_refresh=0 / rc_lookahead=50 / rc=2pass / mbtree=1 / bitrate=9827 / ratetol=1.0 / qcomp=0.70 / qpmin=1 / qpmax=63 / qpstep=4 / cplxblur=20.0 / qblur=0.5 / vbv_maxrate=40000 / vbv_bufsize=40000 / nal_hrd=none / ip_ratio=1.40 / aq=2:0.70
Audio #1
ID : 2
Format : DTS
Format/Info : Digital Theater Systems
Codec ID : A_DTS
Duration : 1h 49mn
Bit rate mode : Constant
Bit rate : 1 510 Kbps
Channel(s) : 6 channels
Channel positions : Front: L C R, Surround: L R, LFE
Sampling rate : 48.0 KHz
Resolution : 24 bits
Video delay : 11ms
Stream size : 1.16 GiB (13%)
Audio #2
ID : 4
Format : AC-3
Format/Info : Audio Coding 3
Codec ID : A_AC3
Duration : 1h 49mn
Bit rate mode : Constant
Bit rate : 192 Kbps
Channel(s) : 2 channels
Channel positions : L R
Sampling rate : 48.0 KHz
Stream size : 151 MiB (2%)
Title : DD 2.0 @ 192 Kbps - MVO, R5
Language : Russian
Text
ID : 3
Format : UTF-8
Codec ID : S_TEXT/UTF8
Codec ID/Info : UTF-8 Plain Text

Скриншоты

Показать сообщения:    

Текущее время: Сегодня 03:36

Часовой пояс: GMT



Вы не можете начинать темы
Вы не можете отвечать на сообщения
Вы не можете редактировать свои сообщения
Вы не можете удалять свои сообщения
Вы не можете голосовать в опросах
Вы не можете прикреплять файлы к сообщениям
Вы не можете скачивать файлы