Важное объявление!
У Нас Все раздачи мультитрекерные, при нуле пиров в релизах, можете смело вставать на закачку!
 
Автор Сообщение

HUNTER

Стаж:
4 года 8 месяцев
Сообщений:
62060

Репутация: 101

[+] [-]
Вне форума [Профиль] [ЛС]

Аромат дамы в черном / Il profumo della signora in nero / The Perfume of the Lady in Black
Страна: Италия
Студия: Euro International Film (EIA)
Жанр: ужасы, триллер, детектив
Год выпуска: 1974
Продолжительность: 01:43:24
Перевод: Одноголосый закадровый
Cубтитры: английские
Оригинальная аудиодорожка: итальянский
Режиссер: Франческо Барилли / Francesco Barilli
В ролях: Мимзи Фармер, Маурицио Бонулья, Марио Скачча, Джо Дженкинс, Нике Арриги, Лара Вендел, Алека Пайзи, Рената Дзаменго, Уго Карбони, Роберта Кадрингер, Серджио Форчина, Габриэль Бентивольо, Луиджи Антонио Гуэрра, Карла Манчини, Донна Джордан, Орацио Орландо, Альдо Валлетти
Описание: Молодая женщина Сильвия Хэчерманн обитает одна в фешенебельной квартире. Правда, у неё есть подруга, живущая этажом выше, любовник — приятный молодой человек, а также милый сосед, синьор Россетти, который проявляет по отношению к Сильвии удивительную доброту. На одной из вечеринок гость-негр рассказывает о действии чёрной магии, когда человек постепенно начинает сходить с ума, причём сам того не осознавая. После этого Сильвию начинают преследовать кошмары из прошлого и настоящего, когда стирается грань между реальным и воображаемым. Она замечает странные, подозрительные перемены в ближайшем окружении, пока всё не приобретает зловещий характер…
[img]https://rating.kinopoisk.ru/141540.gif[/img]
Sample
Тип релиза: BDRip 720p - mfcorrea
Контейнер: MKV
Видео: MPEG4 AVC Video, H264, 16:9, 1280x692, 24 fps, 7440 Kbps
Аудио: Russian (AC3, 2 ch, 192 kbps, 16 bits, 48.0 KHz) - VO
Аудио 2: Italian (AC3, 2 ch, 640 kbps, 16 bits, 48.0 KHz) - оригинал
Аудио 2: English (AC3, 2 ch, 640 kbps, 16 bits, 48.0 KHz)
Формат субтитров: softsub (SRT)

MediaInfo

General
Unique ID : 210812089855721488467236872207191897833 (0x9E98EE808FD79CC787717EE4BC41F6E9)
Complete name : E:\Il Profumo della Signora in Nero 1974 BDRip 720p-mfcorrea.mkv
Format : Matroska
Format version : Version 4 / Version 2
File size : 6.44 GiB
Duration : 1h 43mn
Overall bit rate : 8 913 Kbps
Encoded date : UTC 2016-08-01 13:04:12
Writing application : mkvmerge v6.1.0 ('Old Devil') built on Mar 2 2013 14:32:37
Writing library : libebml v1.3.0 + libmatroska v1.4.0
Video
ID : 1
Format : AVC
Format/Info : Advanced Video Codec
Format profile : High@L4.1
Format settings, CABAC : Yes
Format settings, ReFrames : 9 frames
Codec ID : V_MPEG4/ISO/AVC
Duration : 1h 43mn
Bit rate : 7 440 Kbps
Width : 1 280 pixels
Height : 692 pixels
Display aspect ratio : 1.85:1
Frame rate mode : Constant
Frame rate : 24.000 fps
Color space : YUV
Chroma subsampling : 4:2:0
Bit depth : 8 bits
Scan type : Progressive
Bits/(Pixel*Frame) : 0.350
Stream size : 5.25 GiB (81%)
Writing library : x264 core 142 r2479 dd79a61
Encoding settings : cabac=1 / ref=9 / deblock=1:-3:-3 / analyse=0x3:0x133 / me=umh / subme=9 / psy=1 / psy_rd=1.00:0.00 / mixed_ref=1 / me_range=35 / chroma_me=1 / trellis=2 / 8x8dct=1 / cqm=0 / deadzone=21,11 / fast_pskip=0 / chroma_qp_offset=-2 / threads=18 / lookahead_threads=4 / sliced_threads=0 / nr=0 / decimate=1 / interlaced=0 / bluray_compat=0 / constrained_intra=0 / bframes=10 / b_pyramid=2 / b_adapt=2 / b_bias=0 / direct=3 / weightb=1 / open_gop=0 / weightp=2 / keyint=240 / keyint_min=24 / scenecut=40 / intra_refresh=0 / rc_lookahead=100 / rc=2pass / mbtree=1 / bitrate=7440 / ratetol=1.0 / qcomp=0.60 / qpmin=0 / qpmax=69 / qpstep=4 / cplxblur=20.0 / qblur=0.5 / vbv_maxrate=62500 / vbv_bufsize=78125 / nal_hrd=none / filler=0 / ip_ratio=1.40 / aq=1:1.00
Language : English
Default : Yes
Forced : No
Color primaries : BT.709
Transfer characteristics : BT.709
Matrix coefficients : BT.709
Audio #1
ID : 2
Format : AC-3
Format/Info : Audio Coding 3
Mode extension : CM (complete main)
Format settings, Endianness : Big
Codec ID : A_AC3
Duration : 1h 43mn
Bit rate mode : Constant
Bit rate : 192 Kbps
Channel count : 2 channels
Channel positions : Front: L R
Sampling rate : 48.0 KHz
Bit depth : 16 bits
Compression mode : Lossy
Stream size : 142 MiB (2%)
Language : Russian
Default : Yes
Forced : No
Audio #2
ID : 3
Format : AC-3
Format/Info : Audio Coding 3
Mode extension : CM (complete main)
Format settings, Endianness : Big
Codec ID : A_AC3
Duration : 1h 43mn
Bit rate mode : Constant
Bit rate : 640 Kbps
Channel count : 2 channels
Channel positions : Front: L R
Sampling rate : 48.0 KHz
Bit depth : 16 bits
Compression mode : Lossy
Stream size : 473 MiB (7%)
Language : Italian
Default : No
Forced : No
Audio #3
ID : 4
Format : AC-3
Format/Info : Audio Coding 3
Mode extension : CM (complete main)
Format settings, Endianness : Big
Codec ID : A_AC3
Duration : 1h 43mn
Bit rate mode : Constant
Bit rate : 640 Kbps
Channel count : 2 channels
Channel positions : Front: L R
Sampling rate : 48.0 KHz
Bit depth : 16 bits
Compression mode : Lossy
Stream size : 473 MiB (7%)
Language : English
Default : No
Forced : No
Text
ID : 5
Format : UTF-8
Codec ID : S_TEXT/UTF8
Codec ID/Info : UTF-8 Plain Text
Language : English
Default : No
Forced : No
Menu
00:00:00.000 : :Chapter 1
00:15:11.208 : :Chapter 2
00:31:44.500 : :Chapter 3
00:49:26.125 : :Chapter 4
01:06:36.666 : :Chapter 5
01:26:05.333 : :Chapter 6

Скриншоты


_________________
Показать сообщения:    

Текущее время: Сегодня 07:21

Часовой пояс: GMT



Вы не можете начинать темы
Вы не можете отвечать на сообщения
Вы не можете редактировать свои сообщения
Вы не можете удалять свои сообщения
Вы не можете голосовать в опросах
Вы не можете прикреплять файлы к сообщениям
Вы не можете скачивать файлы
Наши партнеры: интернет магазин Ивановского трикотажа textilla.ru