Ивановский Торрент трекер
Яндекс.Погода
 

[Цитировать]
димитри37

Арктический хищник / Arctic Predator / Frost Giant
Страна: США
Жанр: фантастика
Год выпуска: 2010
Продолжительность: 01:23:06
Перевод: Профессиональный (многоголосый закадровый) ТВ3
Cубтитры: немецкие вшитые, на надписи
Оригинальная аудиодорожка: английский
Режиссер: Виктор Гарсия / Víctor García
В ролях: Эрби Эго, Велизар Бинев, Люси Браун, Дин Кэйн, Луиса Клейн, Laia Gonzilez, Майк Джонсон, Илиана Лазарова, Майк Страуб, Стивен Вэддингтон
Описание: Около двухсот лет назад некое исследовательское судно пропало во время арктической экспедиции. Что произошло тогда – так никто и не узнал, но спустя столетия один из потомков членов экипажа того корабля, ученый, намерен отыскать пропавшую экспедицию. Исследуя ледяные пространства на своем судне с помощью новевшего оборудования, герой картины «Арктический хищник» (Arctic Predator), наконец, находит замерший во льдах корабль.
Однако, попытка изучить находку наталкивается на неожиданное препятствие – один за другим начинают исчезать члены экспедиции. Постепенно оставшиеся на корабле понимают, что своими действиями разбудили ледяного монстра, арктического хищника, дремавшего двести лет.
Доп. информация: На ТВ3 показали обрезанную версию. На непереведенные места вставлена озвучка RollingHead (Сергей Синица), перевод Severnyj по заказу kosmoaelita.com.
Сэмпл: http://multi-up.com/911924
Качество видео: HDTVRip
Формат видео: AVI
Видео: MPEG4, XviD, 720x400 (16/9), 25.000 fps, 1 965 Kbps (0.273 bit/pixel)
Аудио 1: AC-3, 48.0 KHz, 2 ch, 192 Kbps, CBR - русский
Аудио 2: AC-3, 48.0 KHz, 2 ch, 192 Kbps, CBR - английский

MediaInfo

Общее
Полное имя : K:\Арктический хищник.avi
Формат : AVI
Формат/Информация : Audio Video Interleave
Размер файла : 1,37 Гбайт
Продолжительность : 1 ч. 23 м.
Общий поток : 2364 Кбит/сек
Название фильма : Арктический хищник / Arctic Predator / Frost Giant (2010)
Режиссёр : miha2154
Программа кодирования : VirtualDubMod 1.5.10.2 (build 2540/release)
Библиотека кодирования : VirtualDubMod build 2540/release
Правообладатель : специально для BitTorrent трекер RuTracker.org (ex torrents.ru)
Видео
Идентификатор : 0
Формат : MPEG-4 Visual
Профиль формата : Advanced Simple@L5
Параметр BVOP формата : 2
Параметр QPel формата : Нет
Параметр GMC формата : Без точки перехода
Параметр матрицы формата : Default (MPEG)
Идентификатор кодека : XVID
Идентификатор кодека/Подсказка : XviD
Продолжительность : 1 ч. 23 м.
Битрейт : 1965 Кбит/сек
Ширина : 720 пикселей
Высота : 400 пикселей
Соотношение сторон : 16:9
Частота кадров : 25,000 кадров/сек
Цветовое пространство : YUV
Субдискретизация насыщенности : 4:2:0
Битовая глубина : 8 бит
Тип развёртки : Прогрессивная
Метод сжатия : С потерями
Бит/(Пиксели*Кадры) : 0.273
Размер потока : 1,14 Гбайт (83%)
Библиотека кодирования : XviD 1.1.0 (UTC 2005-11-22)
Аудио #1
Идентификатор : 1
Формат : AC-3
Формат/Информация : Audio Coding 3
Расширение режима : CM (complete main)
Параметр Endianness формата : Big
Идентификатор кодека : 2000
Продолжительность : 1 ч. 23 м.
Вид битрейта : Постоянный
Битрейт : 192 Кбит/сек
Каналы : 2 канала
Расположение каналов : Front: L R
Частота : 48,0 КГц
Битовая глубина : 16 бит
Метод сжатия : С потерями
Размер потока : 114 Мбайт (8%)
Выравнивание : Разделение по промежуткам
Продолжительность промежутка : 40 мс. (1,00 видеокадр)
Время предзагрузки промежутка : 500 мс.
Заголовок : Профессиональный (многоголосый закадровый) ТВ3
Аудио #2
Идентификатор : 2
Формат : AC-3
Формат/Информация : Audio Coding 3
Расширение режима : CM (complete main)
Параметр Endianness формата : Big
Идентификатор кодека : 2000
Продолжительность : 1 ч. 23 м.
Вид битрейта : Постоянный
Битрейт : 192 Кбит/сек
Каналы : 2 канала
Расположение каналов : Front: L R
Частота : 48,0 КГц
Битовая глубина : 16 бит
Метод сжатия : С потерями
Размер потока : 114 Мбайт (8%)
Выравнивание : Разделение по промежуткам
Продолжительность промежутка : 40 мс. (1,00 видеокадр)
Время предзагрузки промежутка : 500 мс.
Заголовок : Английский

Скриншот c названием фильма

Скриншоты


Показать сообщения:    

Текущее время: 20-Окт 13:26

Часовой пояс: UTC - 1


Вы не можете начинать темы
Вы не можете отвечать на сообщения
Вы не можете редактировать свои сообщения
Вы не можете удалять свои сообщения
Вы не можете голосовать в опросах
Вы не можете прикреплять файлы к сообщениям
Вы не можете скачивать файлы

!ВНИМАНИЕ!
Сайт не предоставляет электронные версии произведений, а занимается лишь коллекционированием и каталогизацией ссылок, присылаемых и публикуемых на форуме нашими читателями. Если вы являетесь правообладателем какого-либо представленного материала и не желаете, чтобы ссылка на него находилась в нашем каталоге, свяжитесь с нами, и мы незамедлительно удалим ее. Файлы для обмена на трекере предоставлены пользователями сайта, и администрация не несет ответственности за их содержание. Просьба не заливать файлы, защищенные авторскими правами, а также файлы нелегального содержания!