Ивановский Торрент трекер
Яндекс.Погода
 

[Цитировать]
HUNTER

Аркадий Паровозов спешит на помощь

Год выхода: 2012
Выпущено: Россия
Жанр: Обучающий мультсериал
Продолжительность: 15 х ~00:02:02
Перевод: Оригинал
Режиссер: Евгений Головин
Автор сценария: Вадим Воля
Художник-постановщик: Наталья Харина
Продюсеры: Татьяна Цыварева, Глеб Шагун
Композитор: Александр Силкин
Роли озвучивали: Вадим Воля — чтение текста, Игорь Войнаровский — исполнение песни--О мультфильме:
Аркадий Паровозов — герой-спасатель и образец поведения для всякого ребенка и взрослого!
Занимательные и очень поучительные истории о приключениях неутомимых проказников, Маши и Саши. Любая их затея — приготовление пирога, постройка звездолета или лесная прогулка — обычно приводит к непредвиденным последствиям. Как хорошо, что удивительный Аркадий Паровозов всегда вовремя приходит ребятам на помощь!
Герои. Саша и Маша — любопытные дети, которые любят шалить и устраивать беспорядки. Они как будто притягивают к себе все беды и неприятности. Брат и сестра живут на двенадцатом этаже, учатся средне.
Аркадий Паровозов — спасатель, герой и космонавт; добрый и смелый, веселый и находчивый. Он умеет летать, неплохо играет на баяне, не курит и живет на Луне.
Оригинальный мультсериал, обучающий основам безопасности жизнедеятельности в стихотворной форме. Основная задача проекта — научить детей быстро и правильно реагировать в случае опасных ситуаций и предотвращать их возникновение.
--Качество: SATRip
Формат: AVI
Видео кодек: DivX
Аудио кодек: MP3
Видео:
Video: 640x480 (1.33:1), 25 fps, DivX Codec 5.x or 6.x ~1409 kbps avg, ~0.18 bit/pixel
Звук:
Audio:48 kHz, MPEG Layer 3, 2 ch, ~128.00 kbps avg--

--

Список серий

1. В магазине
2. Классики
3. Качели
4. Прятки
5. Грузовик
6. Уборка
7. Лес
8. Газ
9. Незнакомец
10. Спички
11. Солнце
12. Микробы
13. Молния
14. Грибы
15. Лес зимой

Подробные технические данные

Код: copyText_writeLink('this.parentNode.parentNode.nextSibling.nextSibling'); Общее
Полное имя : D:\Мультфильмы\Аркадий Паровозов\01_V_magazine.avi
Формат : AVI
Формат/Информация : Audio Video Interleave
Размер файла : 20,6 Мбайт
Продолжительность : 2 м. 0 с.
Общий поток : 1431 Кбит/сек
Программа кодирования : Lavf52.94.0
Видео
Идентификатор : 0
Формат : xvid
Идентификатор кодека : xvid
Продолжительность : 2 м. 0 с.
Битрейт : 1291 Кбит/сек
Ширина : 640 пикселей
Высота : 480 пикселей
Соотношение сторон : 4:3
Частота кадров : 25,000 кадров/сек
Бит/(Пиксели*Кадры) : 0.168
Размер потока : 18,6 Мбайт (90%)
Аудио
Идентификатор : 1
Формат : MPEG Audio
Версия формата : Version 1
Профиль формата : Layer 3
Режим : Joint stereo
Расширение режима : MS Stereo
Идентификатор кодека : 55
Идентификатор кодека/Подсказка : MP3
Продолжительность : 2 м. 0 с.
Вид битрейта : Постоянный
Битрейт : 128 Кбит/сек
Каналы : 2 канала
Частота : 48,0 КГц
Метод сжатия : С потерями
Размер потока : 1,84 Мбайт (9%)
Выравнивание : Соединение по промежуткам
Продолжительность промежутка : 24 мс. (0,60 видеокадр)
Общее
Полное имя : D:\Мультфильмы\Аркадий Паровозов\02_Klassiki.avi
Формат : AVI
Формат/Информация : Audio Video Interleave
Размер файла : 20,8 Мбайт
Продолжительность : 2 м. 1 с.
Общий поток : 1431 Кбит/сек
Программа кодирования : Lavf52.94.0
Видео
Идентификатор : 0
Формат : xvid
Идентификатор кодека : xvid
Продолжительность : 2 м. 1 с.
Битрейт : 1290 Кбит/сек
Ширина : 640 пикселей
Высота : 480 пикселей
Соотношение сторон : 4:3
Частота кадров : 25,000 кадров/сек
Бит/(Пиксели*Кадры) : 0.168
Размер потока : 18,7 Мбайт (90%)
Аудио
Идентификатор : 1
Формат : MPEG Audio
Версия формата : Version 1
Профиль формата : Layer 3
Режим : Joint stereo
Расширение режима : MS Stereo
Идентификатор кодека : 55
Идентификатор кодека/Подсказка : MP3
Продолжительность : 2 м. 1 с.
Вид битрейта : Постоянный
Битрейт : 128 Кбит/сек
Каналы : 2 канала
Частота : 48,0 КГц
Метод сжатия : С потерями
Размер потока : 1,86 Мбайт (9%)
Выравнивание : Соединение по промежуткам
Продолжительность промежутка : 24 мс. (0,60 видеокадр)
Общее
Полное имя : D:\Мультфильмы\Аркадий Паровозов\03_Kacheli.avi
Формат : AVI
Формат/Информация : Audio Video Interleave
Размер файла : 20,5 Мбайт
Продолжительность : 2 м. 0 с.
Общий поток : 1430 Кбит/сек
Программа кодирования : Lavf52.94.0
Видео
Идентификатор : 0
Формат : xvid
Идентификатор кодека : xvid
Продолжительность : 1 м. 59 с.
Битрейт : 1289 Кбит/сек
Ширина : 640 пикселей
Высота : 480 пикселей
Соотношение сторон : 4:3
Частота кадров : 25,000 кадров/сек
Бит/(Пиксели*Кадры) : 0.168
Размер потока : 18,4 Мбайт (90%)
Аудио
Идентификатор : 1
Формат : MPEG Audio
Версия формата : Version 1
Профиль формата : Layer 3
Режим : Joint stereo
Расширение режима : MS Stereo
Идентификатор кодека : 55
Идентификатор кодека/Подсказка : MP3
Продолжительность : 2 м. 0 с.
Вид битрейта : Постоянный
Битрейт : 128 Кбит/сек
Каналы : 2 канала
Частота : 48,0 КГц
Метод сжатия : С потерями
Размер потока : 1,83 Мбайт (9%)
Выравнивание : Соединение по промежуткам
Продолжительность промежутка : 24 мс. (0,60 видеокадр)
Библиотека кодирования : LAME
Общее
Полное имя : D:\Мультфильмы\Аркадий Паровозов\04_Priatki.avi
Формат : AVI
Формат/Информация : Audio Video Interleave
Размер файла : 20,8 Мбайт
Продолжительность : 2 м. 1 с.
Общий поток : 1431 Кбит/сек
Программа кодирования : Lavf52.94.0
Видео
Идентификатор : 0
Формат : xvid
Идентификатор кодека : xvid
Продолжительность : 2 м. 1 с.
Битрейт : 1290 Кбит/сек
Ширина : 640 пикселей
Высота : 480 пикселей
Соотношение сторон : 4:3
Частота кадров : 25,000 кадров/сек
Бит/(Пиксели*Кадры) : 0.168
Размер потока : 18,7 Мбайт (90%)
Аудио
Идентификатор : 1
Формат : MPEG Audio
Версия формата : Version 1
Профиль формата : Layer 3
Режим : Joint stereo
Расширение режима : MS Stereo
Идентификатор кодека : 55
Идентификатор кодека/Подсказка : MP3
Продолжительность : 2 м. 1 с.
Вид битрейта : Постоянный
Битрейт : 128 Кбит/сек
Каналы : 2 канала
Частота : 48,0 КГц
Метод сжатия : С потерями
Размер потока : 1,86 Мбайт (9%)
Выравнивание : Соединение по промежуткам
Продолжительность промежутка : 24 мс. (0,60 видеокадр)
Общее
Полное имя : D:\Мультфильмы\Аркадий Паровозов\05_Gruzovik.avi
Формат : AVI
Формат/Информация : Audio Video Interleave
Размер файла : 21,0 Мбайт
Продолжительность : 2 м. 2 с.
Общий поток : 1429 Кбит/сек
Программа кодирования : Lavf52.94.0
Видео
Идентификатор : 0
Формат : xvid
Идентификатор кодека : xvid
Продолжительность : 2 м. 2 с.
Битрейт : 1289 Кбит/сек
Ширина : 640 пикселей
Высота : 480 пикселей
Соотношение сторон : 4:3
Частота кадров : 25,000 кадров/сек
Бит/(Пиксели*Кадры) : 0.168
Размер потока : 18,9 Мбайт (90%)
Аудио
Идентификатор : 1
Формат : MPEG Audio
Версия формата : Version 1
Профиль формата : Layer 3
Режим : Joint stereo
Расширение режима : MS Stereo
Идентификатор кодека : 55
Идентификатор кодека/Подсказка : MP3
Продолжительность : 2 м. 2 с.
Вид битрейта : Постоянный
Битрейт : 128 Кбит/сек
Каналы : 2 канала
Частота : 48,0 КГц
Метод сжатия : С потерями
Размер потока : 1,88 Мбайт (9%)
Выравнивание : Соединение по промежуткам
Продолжительность промежутка : 24 мс. (0,60 видеокадр)
Общее
Полное имя : D:\Мультфильмы\Аркадий Паровозов\06_Uborka.avi
Формат : AVI
Формат/Информация : Audio Video Interleave
Размер файла : 19,0 Мбайт
Продолжительность : 1 м. 51 с.
Общий поток : 1433 Кбит/сек
Программа кодирования : Lavf52.94.0
Видео
Идентификатор : 0
Формат : xvid
Идентификатор кодека : xvid
Продолжительность : 1 м. 50 с.
Битрейт : 1293 Кбит/сек
Ширина : 640 пикселей
Высота : 480 пикселей
Соотношение сторон : 4:3
Частота кадров : 25,000 кадров/сек
Бит/(Пиксели*Кадры) : 0.168
Размер потока : 17,1 Мбайт (90%)
Аудио
Идентификатор : 1
Формат : MPEG Audio
Версия формата : Version 1
Профиль формата : Layer 3
Режим : Joint stereo
Расширение режима : MS Stereo
Идентификатор кодека : 55
Идентификатор кодека/Подсказка : MP3
Продолжительность : 1 м. 51 с.
Вид битрейта : Постоянный
Битрейт : 128 Кбит/сек
Каналы : 2 канала
Частота : 48,0 КГц
Метод сжатия : С потерями
Размер потока : 1,69 Мбайт (9%)
Выравнивание : Соединение по промежуткам
Продолжительность промежутка : 24 мс. (0,60 видеокадр)
Общее
Полное имя : D:\Мультфильмы\Аркадий Паровозов\07_Les.avi
Формат : AVI
Формат/Информация : Audio Video Interleave
Размер файла : 19,7 Мбайт
Продолжительность : 1 м. 55 с.
Общий поток : 1433 Кбит/сек
Программа кодирования : Lavf52.94.0
Видео
Идентификатор : 0
Формат : xvid
Идентификатор кодека : xvid
Продолжительность : 1 м. 54 с.
Битрейт : 1293 Кбит/сек
Ширина : 640 пикселей
Высота : 480 пикселей
Соотношение сторон : 4:3
Частота кадров : 25,000 кадров/сек
Бит/(Пиксели*Кадры) : 0.168
Размер потока : 17,7 Мбайт (90%)
Аудио
Идентификатор : 1
Формат : MPEG Audio
Версия формата : Version 1
Профиль формата : Layer 3
Режим : Joint stereo
Расширение режима : MS Stereo
Идентификатор кодека : 55
Идентификатор кодека/Подсказка : MP3
Продолжительность : 1 м. 55 с.
Вид битрейта : Постоянный
Битрейт : 128 Кбит/сек
Каналы : 2 канала
Частота : 48,0 КГц
Метод сжатия : С потерями
Размер потока : 1,75 Мбайт (9%)
Выравнивание : Соединение по промежуткам
Продолжительность промежутка : 24 мс. (0,60 видеокадр)
Общее
Полное имя : D:\Мультфильмы\Аркадий Паровозов\08_Gaz.avi
Формат : AVI
Формат/Информация : Audio Video Interleave
Размер файла : 19,6 Мбайт
Продолжительность : 1 м. 55 с.
Общий поток : 1432 Кбит/сек
Программа кодирования : Lavf52.94.0
Видео
Идентификатор : 0
Формат : xvid
Идентификатор кодека : xvid
Продолжительность : 1 м. 54 с.
Битрейт : 1291 Кбит/сек
Ширина : 640 пикселей
Высота : 480 пикселей
Соотношение сторон : 4:3
Частота кадров : 25,000 кадров/сек
Бит/(Пиксели*Кадры) : 0.168
Размер потока : 17,7 Мбайт (90%)
Аудио
Идентификатор : 1
Формат : MPEG Audio
Версия формата : Version 1
Профиль формата : Layer 3
Режим : Joint stereo
Расширение режима : MS Stereo
Идентификатор кодека : 55
Идентификатор кодека/Подсказка : MP3
Продолжительность : 1 м. 55 с.
Вид битрейта : Постоянный
Битрейт : 128 Кбит/сек
Каналы : 2 канала
Частота : 48,0 КГц
Метод сжатия : С потерями
Размер потока : 1,75 Мбайт (9%)
Выравнивание : Соединение по промежуткам
Продолжительность промежутка : 24 мс. (0,60 видеокадр)
Общее
Полное имя : D:\Мультфильмы\Аркадий Паровозов\09_Neznakomec.avi
Формат : AVI
Формат/Информация : Audio Video Interleave
Размер файла : 18,8 Мбайт
Продолжительность : 1 м. 50 с.
Общий поток : 1433 Кбит/сек
Программа кодирования : Lavf52.94.0
Видео
Идентификатор : 0
Формат : xvid
Идентификатор кодека : xvid
Продолжительность : 1 м. 49 с.
Битрейт : 1293 Кбит/сек
Ширина : 640 пикселей
Высота : 480 пикселей
Соотношение сторон : 4:3
Частота кадров : 25,000 кадров/сек
Бит/(Пиксели*Кадры) : 0.168
Размер потока : 16,9 Мбайт (90%)
Аудио
Идентификатор : 1
Формат : MPEG Audio
Версия формата : Version 1
Профиль формата : Layer 3
Режим : Joint stereo
Расширение режима : MS Stereo
Идентификатор кодека : 55
Идентификатор кодека/Подсказка : MP3
Продолжительность : 1 м. 50 с.
Вид битрейта : Постоянный
Битрейт : 128 Кбит/сек
Каналы : 2 канала
Частота : 48,0 КГц
Метод сжатия : С потерями
Размер потока : 1,68 Мбайт (9%)
Выравнивание : Соединение по промежуткам
Продолжительность промежутка : 24 мс. (0,60 видеокадр)
Общее
Полное имя : D:\Мультфильмы\Аркадий Паровозов\10_Spichki.avi
Формат : AVI
Формат/Информация : Audio Video Interleave
Размер файла : 19,0 Мбайт
Продолжительность : 1 м. 51 с.
Общий поток : 1434 Кбит/сек
Программа кодирования : Lavf52.94.0
Видео
Идентификатор : 0
Формат : xvid
Идентификатор кодека : xvid
Продолжительность : 1 м. 50 с.
Битрейт : 1294 Кбит/сек
Ширина : 640 пикселей
Высота : 480 пикселей
Соотношение сторон : 4:3
Частота кадров : 25,000 кадров/сек
Бит/(Пиксели*Кадры) : 0.168
Размер потока : 17,1 Мбайт (90%)
Аудио
Идентификатор : 1
Формат : MPEG Audio
Версия формата : Version 1
Профиль формата : Layer 3
Режим : Joint stereo
Расширение режима : MS Stereo
Идентификатор кодека : 55
Идентификатор кодека/Подсказка : MP3
Продолжительность : 1 м. 51 с.
Вид битрейта : Постоянный
Битрейт : 128 Кбит/сек
Каналы : 2 канала
Частота : 48,0 КГц
Метод сжатия : С потерями
Размер потока : 1,69 Мбайт (9%)
Выравнивание : Соединение по промежуткам
Продолжительность промежутка : 24 мс. (0,60 видеокадр)
Общее
Полное имя : D:\Мультфильмы\Аркадий Паровозов\11_Solntse.avi
Формат : AVI
Формат/Информация : Audio Video Interleave
Размер файла : 21,3 Мбайт
Продолжительность : 2 м. 5 с.
Общий поток : 1427 Кбит/сек
Программа кодирования : Lavf52.94.0
Видео
Идентификатор : 0
Формат : xvid
Идентификатор кодека : xvid
Продолжительность : 2 м. 4 с.
Битрейт : 1287 Кбит/сек
Ширина : 640 пикселей
Высота : 480 пикселей
Соотношение сторон : 4:3
Частота кадров : 25,000 кадров/сек
Бит/(Пиксели*Кадры) : 0.168
Размер потока : 19,2 Мбайт (90%)
Аудио
Идентификатор : 1
Формат : MPEG Audio
Версия формата : Version 1
Профиль формата : Layer 3
Режим : Joint stereo
Расширение режима : MS Stereo
Идентификатор кодека : 55
Идентификатор кодека/Подсказка : MP3
Продолжительность : 2 м. 5 с.
Вид битрейта : Постоянный
Битрейт : 128 Кбит/сек
Каналы : 2 канала
Частота : 48,0 КГц
Метод сжатия : С потерями
Размер потока : 1,91 Мбайт (9%)
Выравнивание : Соединение по промежуткам
Продолжительность промежутка : 24 мс. (0,60 видеокадр)
Общее
Полное имя : D:\Мультфильмы\Аркадий Паровозов\12_Microby.avi
Формат : AVI
Формат/Информация : Audio Video Interleave
Размер файла : 20,9 Мбайт
Продолжительность : 2 м. 3 с.
Общий поток : 1427 Кбит/сек
Программа кодирования : Lavf52.94.0
Видео
Идентификатор : 0
Формат : xvid
Идентификатор кодека : xvid
Продолжительность : 2 м. 2 с.
Битрейт : 1286 Кбит/сек
Ширина : 640 пикселей
Высота : 480 пикселей
Соотношение сторон : 4:3
Частота кадров : 25,000 кадров/сек
Бит/(Пиксели*Кадры) : 0.167
Размер потока : 18,8 Мбайт (90%)
Аудио
Идентификатор : 1
Формат : MPEG Audio
Версия формата : Version 1
Профиль формата : Layer 3
Режим : Joint stereo
Расширение режима : MS Stereo
Идентификатор кодека : 55
Идентификатор кодека/Подсказка : MP3
Продолжительность : 2 м. 3 с.
Вид битрейта : Постоянный
Битрейт : 128 Кбит/сек
Каналы : 2 канала
Частота : 48,0 КГц
Метод сжатия : С потерями
Размер потока : 1,88 Мбайт (9%)
Выравнивание : Соединение по промежуткам
Продолжительность промежутка : 24 мс. (0,60 видеокадр)
Общее
Полное имя : D:\Мультфильмы\Аркадий Паровозов\13_Molniya.avi
Формат : AVI
Формат/Информация : Audio Video Interleave
Размер файла : 21,3 Мбайт
Продолжительность : 2 м. 4 с.
Общий поток : 1430 Кбит/сек
Программа кодирования : Lavf52.94.0
Видео
Идентификатор : 0
Формат : xvid
Идентификатор кодека : xvid
Продолжительность : 2 м. 4 с.
Битрейт : 1289 Кбит/сек
Ширина : 640 пикселей
Высота : 480 пикселей
Соотношение сторон : 4:3
Частота кадров : 25,000 кадров/сек
Бит/(Пиксели*Кадры) : 0.168
Размер потока : 19,2 Мбайт (90%)
Аудио
Идентификатор : 1
Формат : MPEG Audio
Версия формата : Version 1
Профиль формата : Layer 3
Режим : Joint stereo
Расширение режима : MS Stereo
Идентификатор кодека : 55
Идентификатор кодека/Подсказка : MP3
Продолжительность : 2 м. 4 с.
Вид битрейта : Постоянный
Битрейт : 128 Кбит/сек
Каналы : 2 канала
Частота : 48,0 КГц
Метод сжатия : С потерями
Размер потока : 1,91 Мбайт (9%)
Выравнивание : Соединение по промежуткам
Продолжительность промежутка : 24 мс. (0,60 видеокадр)
Общее
Полное имя : D:\Мультфильмы\Аркадий Паровозов\14_Griby.avi
Формат : AVI
Формат/Информация : Audio Video Interleave
Размер файла : 21,3 Мбайт
Продолжительность : 2 м. 5 с.
Общий поток : 1429 Кбит/сек
Программа кодирования : Lavf52.94.0
Видео
Идентификатор : 0
Формат : xvid
Идентификатор кодека : xvid
Продолжительность : 2 м. 4 с.
Битрейт : 1289 Кбит/сек
Ширина : 640 пикселей
Высота : 480 пикселей
Соотношение сторон : 4:3
Частота кадров : 25,000 кадров/сек
Бит/(Пиксели*Кадры) : 0.168
Размер потока : 19,2 Мбайт (90%)
Аудио
Идентификатор : 1
Формат : MPEG Audio
Версия формата : Version 1
Профиль формата : Layer 3
Режим : Joint stereo
Расширение режима : MS Stereo
Идентификатор кодека : 55
Идентификатор кодека/Подсказка : MP3
Продолжительность : 2 м. 5 с.
Вид битрейта : Постоянный
Битрейт : 128 Кбит/сек
Каналы : 2 канала
Частота : 48,0 КГц
Метод сжатия : С потерями
Размер потока : 1,91 Мбайт (9%)
Выравнивание : Соединение по промежуткам
Продолжительность промежутка : 24 мс. (0,60 видеокадр)
Общее
Полное имя : D:\Мультфильмы\Аркадий Паровозов\15_Les_zimou.avi
Формат : AVI
Формат/Информация : Audio Video Interleave
Размер файла : 21,3 Мбайт
Продолжительность : 2 м. 5 с.
Общий поток : 1431 Кбит/сек
Программа кодирования : Lavf52.94.0
Видео
Идентификатор : 0
Формат : xvid
Идентификатор кодека : xvid
Продолжительность : 2 м. 4 с.
Битрейт : 1290 Кбит/сек
Ширина : 640 пикселей
Высота : 480 пикселей
Соотношение сторон : 4:3
Частота кадров : 25,000 кадров/сек
Бит/(Пиксели*Кадры) : 0.168
Размер потока : 19,2 Мбайт (90%)
Аудио
Идентификатор : 1
Формат : MPEG Audio
Версия формата : Version 1
Профиль формата : Layer 3
Режим : Joint stereo
Расширение режима : MS Stereo
Идентификатор кодека : 55
Идентификатор кодека/Подсказка : MP3
Продолжительность : 2 м. 5 с.
Вид битрейта : Постоянный
Битрейт : 128 Кбит/сек
Каналы : 2 канала
Частота : 48,0 КГц
Метод сжатия : С потерями
Размер потока : 1,91 Мбайт (9%)
Выравнивание : Соединение по промежуткам
Продолжительность промежутка : 24 мс. (0,60 видеокадр)
--
Пожалуйста, оставайтесь на раздаче как можно дольше--
Показать сообщения:    

Текущее время: 22-Окт 21:56

Часовой пояс: UTC - 1


Вы не можете начинать темы
Вы не можете отвечать на сообщения
Вы не можете редактировать свои сообщения
Вы не можете удалять свои сообщения
Вы не можете голосовать в опросах
Вы не можете прикреплять файлы к сообщениям
Вы не можете скачивать файлы

!ВНИМАНИЕ!
Сайт не предоставляет электронные версии произведений, а занимается лишь коллекционированием и каталогизацией ссылок, присылаемых и публикуемых на форуме нашими читателями. Если вы являетесь правообладателем какого-либо представленного материала и не желаете, чтобы ссылка на него находилась в нашем каталоге, свяжитесь с нами, и мы незамедлительно удалим ее. Файлы для обмена на трекере предоставлены пользователями сайта, и администрация не несет ответственности за их содержание. Просьба не заливать файлы, защищенные авторскими правами, а также файлы нелегального содержания!