Важное объявление!
У Нас Все раздачи мультитрекерные, при нуле пиров в релизах, можете смело вставать на закачку!
 
Автор Сообщение

HUNTER

Стаж:
4 года 11 месяцев
Сообщений:
66027

Репутация: 101

[+] [-]
Вне форума [Профиль] [ЛС]

Арестуйте меня / Arretez-moi-
Страна: Франция
Жанр: Триллер, драма
Год выпуска: 2013
Продолжительность: 01:39:26
Перевод: Профессиональный (многоголосый закадровый)
Cубтитры: русские
Оригинальная аудиодорожка: французский-Режиссер: Жан-Поль Лильенфельд / Jean-Paul Lilienfeld
В ролях: Софи Марсо, Миу-Миу, Янн Эбонж, Марк Барбе, Валери Бодсон, Артур Бюиссен, Вадим Гудсмитс, Клодин Пеллетье, Женни Клев, Роже Де Моэрлос-Описание: Однажды вечером женщина приходит в полицейский участок, чтобы признаться в убийстве своего мужа, совершенном десять лет назад, мужа, который издевался над ней и регулярно избивал ее. Несмотря на то, что следствие тогда пришло к выводу, что смерть была либо случайной, либо наступила в результате самоубийства, вдова покойного заявляет, что это все — дело ее рук.
- -Тип релиза: BDRip 720p (исх. HDClub Arretez-moi (2013) Blu-Ray [Сustom] 1080p AVC DTS-HD MA 5.1)
Контейнер: MKV
Видео: x.264, 1280x588, 4780 Kbps, 24.000 fps, 0.265 bpf
Аудио 1: DTS, 1509 Kbps, 5.1 channels, 48000 Hz - MVO
Аудио 2: DTS, 1509 Kbps, 5.1 channels, 48000 Hz - FRE
Формат субтитров: softsub (SRT)
-

Скриншоты


Резервные скриншоты



-

MediaInfo

Format : Matroska
Format version : Version 2
File size : 5.42 GiB
Duration : 1h 39mn
Overall bit rate : 7 798 Kbps
Movie name : Арестуйте меня / Arretez-moi (2013) BDRip 720p
Encoded date : UTC 2015-12-09 12:09:53
Writing application : mkvmerge v8.2.0 ('World of Adventure') 32bit
Writing library : libebml v1.3.1 + libmatroska v1.4.2
Attachements : cover.png
Video
ID : 1
Format : AVC
Format/Info : Advanced Video Codec
Format profile : High@L4.1
Format settings, CABAC : Yes
Format settings, ReFrames : 9 frames
Codec ID : V_MPEG4/ISO/AVC
Duration : 1h 39mn
Bit rate : 4 780 Kbps
Width : 1 280 pixels
Height : 588 pixels
Display aspect ratio : 2.2:1
Frame rate mode : Constant
Frame rate : 24.000 fps
Color space : YUV
Chroma subsampling : 4:2:0
Bit depth : 8 bits
Scan type : Progressive
Bits/(Pixel*Frame) : 0.265
Stream size : 3.21 GiB (59%)
Writing library : x264 core 148 r2638 7599210
Encoding settings : cabac=1 / ref=9 / deblock=1:-3:-3 / analyse=0x3:0x133 / me=umh / subme=11 / psy=1 / psy_rd=1.10:0.15 / mixed_ref=1 / me_range=32 / chroma_me=1 / trellis=2 / 8x8dct=1 / cqm=0 / deadzone=21,11 / fast_pskip=0 / chroma_qp_offset=-3 / threads=3 / lookahead_threads=1 / sliced_threads=0 / nr=0 / decimate=1 / interlaced=0 / bluray_compat=0 / constrained_intra=0 / bframes=9 / b_pyramid=2 / b_adapt=2 / b_bias=0 / direct=3 / weightb=1 / open_gop=0 / weightp=2 / keyint=240 / keyint_min=24 / scenecut=40 / intra_refresh=0 / rc_lookahead=40 / rc=2pass / mbtree=0 / bitrate=4780 / ratetol=1.0 / qcomp=0.60 / qpmin=0 / qpmax=69 / qpstep=4 / cplxblur=20.0 / qblur=0.5 / vbv_maxrate=50000 / vbv_bufsize=62500 / nal_hrd=none / filler=0 / ip_ratio=1.30 / pb_ratio=1.30 / aq=2:1.00
Language : English
Default : Yes
Forced : No
Audio #1
ID : 2
Format : DTS
Format/Info : Digital Theater Systems
Mode : 16
Format settings, Endianness : Big
Codec ID : A_DTS
Duration : 1h 39mn
Bit rate mode : Constant
Bit rate : 1 509 Kbps
Channel(s) : 6 channels
Channel positions : Front: L C R, Side: L R, LFE
Sampling rate : 48.0 KHz
Bit depth : 24 bits
Compression mode : Lossy
Stream size : 1.05 GiB (19%)
Title : MVO
Language : Russian
Default : Yes
Forced : No
Audio #2
ID : 3
Format : DTS
Format/Info : Digital Theater Systems
Mode : 16
Format settings, Endianness : Big
Codec ID : A_DTS
Duration : 1h 39mn
Bit rate mode : Constant
Bit rate : 1 509 Kbps
Channel(s) : 6 channels
Channel positions : Front: L C R, Side: L R, LFE
Sampling rate : 48.0 KHz
Bit depth : 24 bits
Compression mode : Lossy
Stream size : 1.05 GiB (19%)
Title : Original
Language : French
Default : No
Forced : No
Text
ID : 4
Format : UTF-8
Codec ID : S_TEXT/UTF8
Codec ID/Info : UTF-8 Plain Text
Language : Russian
Default : No
Forced : No
Menu
00:00:00.000 : en:Chapter 00
00:00:14.125 : en:Chapter 01
00:08:32.791 : en:Chapter 02
00:17:09.791 : en:Chapter 03
00:24:35.250 : en:Chapter 04
00:33:21.250 : en:Chapter 05
00:42:25.666 : en:Chapter 06
00:49:24.791 : en:Chapter 07
00:59:50.916 : en:Chapter 08
01:10:13.833 : en:Chapter 09
01:21:20.375 : en:Chapter 10
01:28:59.041 : en:Chapter 11
01:36:00.791 : en:Chapter 12

_________________
Показать сообщения:    

Текущее время: Сегодня 20:29

Часовой пояс: GMT



Вы не можете начинать темы
Вы не можете отвечать на сообщения
Вы не можете редактировать свои сообщения
Вы не можете удалять свои сообщения
Вы не можете голосовать в опросах
Вы не можете прикреплять файлы к сообщениям
Вы не можете скачивать файлы