Важное объявление!
У Нас Все раздачи мультитрекерные, при нуле пиров в релизах, можете смело вставать на закачку!
 
Автор Сообщение

HUNTER

Стаж:
4 года 10 месяцев
Сообщений:
65576

Репутация: 101

[+] [-]
Вне форума [Профиль] [ЛС]

Аппассионата / Appassionata
Страна: Италия
Жанр: Драма
Год выпуска: 1974
Продолжительность: 01:38:34
Перевод: Авторский (одноголосый закадровый) В.Штейн
Cубтитры 1: русские
Cубтитры 2: английские
Оригинальная аудиодорожка: итальянский
Режиссер: Джанлуиджи Калдероне / Gianluigi Calderone
В ролях: Орнелла Мути / Ornella Muti, Валентина Кортезе / Valentina Cortese, Элеонора Джорджи / Eleonora Giorgi, Нинетто Даволе / Ninetto Davoli, Габриэль Ферцетти / Gabriele Ferzetti, Рената Заменго / Renata Zamengo
Описание: Семья Рутелли, на первый взгляд, производит впечатление обычной благополучной римской семьи. Эмилио Рутелли - известный врач-стоматолог, его жена Элиза - талантливая пианистка, у них красавица-дочь, шестнадцатилетняя Эуджения. Но не всё в семье складывается так просто. Элиза постоянно подвержена нервным срывам на грани безумия. Дочь ненавидит мать и страстно любит отца, явно не дочерней любовью. Когда у Эмилио завязываются интимные отношения с одноклассницей Эуджении, Николой, в голове у дочери возникает безумный план...
Доп. информация: Рип скачан с зарубежного трекера. Добавлена русская дорожка с этой [url=viewtopic.php?t=4292969]http://rutracker.org/forum/viewtopic.php?t=4292969[/url] раздачи и подогнана под данный релиз. Русские субтитры мои, делались с испанских, как наиболее полных. К слову, кто-то писал, что перевод не полный, должен сказать, что перевод вполне хорош и полон. Но, раз субтитры уже сделал, пусть будут. Этот релиз несколько длиннее представленного здесь DVD, в основном, за счет более раскрытой темы..., скажем так эротики. Качество трансфера, как для более, чем 40-летнего фильма, очень неплохое. Диск выпущен ограниченным тиражом 3000 экз.
Сэмпл: http://sendfile.su/1275058
Тип релиза: BDRip 1080p
Контейнер: MKV
Видео: AVC, NTSC, 1920x1024, VBR, 10,5 Мбит/сек, 1,85:1, 23,976 кадра/сек
Аудио 1: Русский, AC-3, 192 Кбит/сек, 48,0 КГц, 2 канала
Аудио 2: Итальянский, FLAC, 1105 Кбит/сек, 48,0 КГц, 2 канала
Формат субтитров: softsub (SRT)
Главы: есть

MediaInfo

Общее
Уникальный идентификатор : 192215118928761607914686694844212622845 (0x909B490B71E6176EB9976D752BCAB5FD)
Полное имя : C:\Users\...\Torrent\APPASSIONATA.MKV
Формат : Matroska
Версия формата : Version 4 / Version 2
Размер файла : 8,13 Гбайт
Продолжительность : 1 ч. 38 м.
Режим общего битрейта : Переменный
Общий поток : 11,8 Мбит/сек
Дата кодирования : UTC 2016-10-18 18:30:18
Программа кодирования : mkvmerge v9.5.0 ('Quiet Fire') 64bit
Библиотека кодирования : libebml v1.3.4 + libmatroska v1.4.5
Видео
Идентификатор : 1
Формат : AVC
Формат/Информация : Advanced Video Codec
Профиль формата : High@L4.1
Параметр CABAC формата : Да
Параметр ReFrames формата : 4 кадра
Идентификатор кодека : V_MPEG4/ISO/AVC
Продолжительность : 1 ч. 38 м.
Битрейт : 10,5 Мбит/сек
Ширина : 1920 пикселей
Высота : 1024 пикселя
Соотношение сторон : 1,85:1
Режим частоты кадров : Постоянный
Частота кадров : 23,976 (24000/1001) кадра/сек
Цветовое пространство : YUV
Субдискретизация насыщенности : 4:2:0
Битовая глубина : 8 бит
Тип развёртки : Прогрессивная
Бит/(Пиксели*Кадры) : 0.223
Размер потока : 7,24 Гбайт (89%)
Библиотека кодирования : x264 core 148 r2692 64f4e24
Настройки программы : cabac=1 / ref=4 / deblock=1:-3:-3 / analyse=0x3:0x113 / me=umh / subme=8 / psy=1 / psy_rd=1.00:0.25 / mixed_ref=1 / me_range=24 / chroma_me=1 / trellis=1 / 8x8dct=1 / cqm=0 / deadzone=21,11 / fast_pskip=1 / chroma_qp_offset=-4 / threads=24 / lookahead_threads=4 / sliced_threads=0 / nr=0 / decimate=1 / interlaced=0 / bluray_compat=0 / constrained_intra=0 / bframes=3 / b_pyramid=2 / b_adapt=2 / b_bias=0 / direct=3 / weightb=1 / open_gop=0 / weightp=2 / keyint=240 / keyint_min=24 / scenecut=40 / intra_refresh=0 / rc_lookahead=50 / rc=2pass / mbtree=1 / bitrate=10512 / ratetol=1.0 / qcomp=0.60 / qpmin=0 / qpmax=69 / qpstep=4 / cplxblur=20.0 / qblur=0.5 / ip_ratio=1.40 / aq=1:0.50
Default : Да
Forced : Нет
Аудио #1
Идентификатор : 2
Формат : AC-3
Формат/Информация : Audio Coding 3
Расширение режима : CM (complete main)
Параметр Endianness формата : Big
Идентификатор кодека : A_AC3
Продолжительность : 1 ч. 38 м.
Вид битрейта : Постоянный
Битрейт : 192 Кбит/сек
Каналы : 2 канала
Расположение каналов : Front: L R
Частота : 48,0 КГц
Частота кадров : 31,250 кадров/сек (1536 spf)
Метод сжатия : С потерями
Размер потока : 135 Мбайт (2%)
Язык : Russian
Default : Да
Forced : Нет
Аудио #2
Идентификатор : 3
Формат : FLAC
Формат/Информация : Free Lossless Audio Codec
Идентификатор кодека : A_FLAC
Продолжительность : 1 ч. 38 м.
Вид битрейта : Переменный
Битрейт : 1105 Кбит/сек
Каналы : 2 канала
Расположение каналов : Front: L R
Частота : 48,0 КГц
Частота кадров : 11,719 кадров/сек (4096 spf)
Битовая глубина : 24 бит
Размер потока : 779 Мбайт (9%)
Библиотека кодирования : libFLAC 1.2.1 (UTC 2007-09-17)
Язык : Italian
Default : Нет
Forced : Нет
Текст #1
Идентификатор : 4
Формат : UTF-8
Идентификатор кодека : S_TEXT/UTF8
Идентификатор кодека/Информация : UTF-8 Plain Text
Продолжительность : 1 ч. 34 м.
Битрейт : 83 бит/сек
Count of elements : 963
Размер потока : 58,1 Кбайт (0%)
Язык : Russian
Default : Нет
Forced : Нет
Текст #2
Идентификатор : 5
Формат : UTF-8
Идентификатор кодека : S_TEXT/UTF8
Идентификатор кодека/Информация : UTF-8 Plain Text
Продолжительность : 1 ч. 30 м.
Битрейт : 55 бит/сек
Count of elements : 902
Размер потока : 36,8 Кбайт (0%)
Язык : English
Default : Нет
Forced : Нет
Меню
00:00:00.000 : en:00:00:00.000
00:04:26.057 : en:00:04:26.057
00:07:55.016 : en:00:07:55.016
00:10:12.028 : en:00:10:12.028
00:17:45.273 : en:00:17:45.273
00:21:07.975 : en:00:21:07.975
00:25:49.715 : en:00:25:49.715
00:30:37.044 : en:00:30:37.044
00:35:29.586 : en:00:35:29.586
00:38:59.963 : en:00:38:59.963
00:42:47.774 : en:00:42:47.774
00:45:56.504 : en:00:45:56.504
00:50:33.072 : en:00:50:33.072
00:53:12.773 : en:00:53:12.773
00:59:31.777 : en:00:59:31.777
01:04:05.133 : en:01:04:05.133
01:08:31.983 : en:01:08:31.983
01:12:21.087 : en:01:12:21.087
01:15:21.517 : en:01:15:21.517
01:19:12.456 : en:01:19:12.456
01:23:21.038 : en:01:23:21.038
01:29:18.270 : en:01:29:18.270
01:31:40.870 : en:01:31:40.870
01:36:56.894 : en:01:36:56.894
Общее
Уникальный идентификатор : 192215118928761607914686694844212622845 (0x909B490B71E6176EB9976D752BCAB5FD)
Полное имя : C:\Users\...\Torrent\APPASSIONATA.MKV
Формат : Matroska
Версия формата : Version 4 / Version 2
Размер файла : 8,13 Гбайт
Продолжительность : 1 ч. 38 м.
Режим общего битрейта : Переменный
Общий поток : 11,8 Мбит/сек
Дата кодирования : UTC 2016-10-18 18:30:18
Программа кодирования : mkvmerge v9.5.0 ('Quiet Fire') 64bit
Библиотека кодирования : libebml v1.3.4 + libmatroska v1.4.5
Видео
Идентификатор : 1
Формат : AVC
Формат/Информация : Advanced Video Codec
Профиль формата : High@L4.1
Параметр CABAC формата : Да
Параметр ReFrames формата : 4 кадра
Идентификатор кодека : V_MPEG4/ISO/AVC
Продолжительность : 1 ч. 38 м.
Битрейт : 10,5 Мбит/сек
Ширина : 1920 пикселей
Высота : 1024 пикселя
Соотношение сторон : 1,85:1
Режим частоты кадров : Постоянный
Частота кадров : 23,976 (24000/1001) кадра/сек
Цветовое пространство : YUV
Субдискретизация насыщенности : 4:2:0
Битовая глубина : 8 бит
Тип развёртки : Прогрессивная
Бит/(Пиксели*Кадры) : 0.223
Размер потока : 7,24 Гбайт (89%)
Библиотека кодирования : x264 core 148 r2692 64f4e24
Настройки программы : cabac=1 / ref=4 / deblock=1:-3:-3 / analyse=0x3:0x113 / me=umh / subme=8 / psy=1 / psy_rd=1.00:0.25 / mixed_ref=1 / me_range=24 / chroma_me=1 / trellis=1 / 8x8dct=1 / cqm=0 / deadzone=21,11 / fast_pskip=1 / chroma_qp_offset=-4 / threads=24 / lookahead_threads=4 / sliced_threads=0 / nr=0 / decimate=1 / interlaced=0 / bluray_compat=0 / constrained_intra=0 / bframes=3 / b_pyramid=2 / b_adapt=2 / b_bias=0 / direct=3 / weightb=1 / open_gop=0 / weightp=2 / keyint=240 / keyint_min=24 / scenecut=40 / intra_refresh=0 / rc_lookahead=50 / rc=2pass / mbtree=1 / bitrate=10512 / ratetol=1.0 / qcomp=0.60 / qpmin=0 / qpmax=69 / qpstep=4 / cplxblur=20.0 / qblur=0.5 / ip_ratio=1.40 / aq=1:0.50
Default : Да
Forced : Нет
Аудио #1
Идентификатор : 2
Формат : AC-3
Формат/Информация : Audio Coding 3
Расширение режима : CM (complete main)
Параметр Endianness формата : Big
Идентификатор кодека : A_AC3
Продолжительность : 1 ч. 38 м.
Вид битрейта : Постоянный
Битрейт : 192 Кбит/сек
Каналы : 2 канала
Расположение каналов : Front: L R
Частота : 48,0 КГц
Частота кадров : 31,250 кадров/сек (1536 spf)
Метод сжатия : С потерями
Размер потока : 135 Мбайт (2%)
Язык : Russian
Default : Да
Forced : Нет
Аудио #2
Идентификатор : 3
Формат : FLAC
Формат/Информация : Free Lossless Audio Codec
Идентификатор кодека : A_FLAC
Продолжительность : 1 ч. 38 м.
Вид битрейта : Переменный
Битрейт : 1105 Кбит/сек
Каналы : 2 канала
Расположение каналов : Front: L R
Частота : 48,0 КГц
Частота кадров : 11,719 кадров/сек (4096 spf)
Битовая глубина : 24 бит
Размер потока : 779 Мбайт (9%)
Библиотека кодирования : libFLAC 1.2.1 (UTC 2007-09-17)
Язык : Italian
Default : Нет
Forced : Нет
Текст #1
Идентификатор : 4
Формат : UTF-8
Идентификатор кодека : S_TEXT/UTF8
Идентификатор кодека/Информация : UTF-8 Plain Text
Продолжительность : 1 ч. 34 м.
Битрейт : 83 бит/сек
Count of elements : 963
Размер потока : 58,1 Кбайт (0%)
Язык : Russian
Default : Нет
Forced : Нет
Текст #2
Идентификатор : 5
Формат : UTF-8
Идентификатор кодека : S_TEXT/UTF8
Идентификатор кодека/Информация : UTF-8 Plain Text
Продолжительность : 1 ч. 30 м.
Битрейт : 55 бит/сек
Count of elements : 902
Размер потока : 36,8 Кбайт (0%)
Язык : English
Default : Нет
Forced : Нет
Меню
00:00:00.000 : en:00:00:00.000
00:04:26.057 : en:00:04:26.057
00:07:55.016 : en:00:07:55.016
00:10:12.028 : en:00:10:12.028
00:17:45.273 : en:00:17:45.273
00:21:07.975 : en:00:21:07.975
00:25:49.715 : en:00:25:49.715
00:30:37.044 : en:00:30:37.044
00:35:29.586 : en:00:35:29.586
00:38:59.963 : en:00:38:59.963
00:42:47.774 : en:00:42:47.774
00:45:56.504 : en:00:45:56.504
00:50:33.072 : en:00:50:33.072
00:53:12.773 : en:00:53:12.773
00:59:31.777 : en:00:59:31.777
01:04:05.133 : en:01:04:05.133
01:08:31.983 : en:01:08:31.983
01:12:21.087 : en:01:12:21.087
01:15:21.517 : en:01:15:21.517
01:19:12.456 : en:01:19:12.456
01:23:21.038 : en:01:23:21.038
01:29:18.270 : en:01:29:18.270
01:31:40.870 : en:01:31:40.870
01:36:56.894 : en:01:36:56.894

Скриншоты

, , , , , , , , , , , , ,
[url=tracker.php?rid=218494]Мои раздачи на RuTracker[/url]

_________________
Показать сообщения:    

Текущее время: Сегодня 06:54

Часовой пояс: GMT



Вы не можете начинать темы
Вы не можете отвечать на сообщения
Вы не можете редактировать свои сообщения
Вы не можете удалять свои сообщения
Вы не можете голосовать в опросах
Вы не можете прикреплять файлы к сообщениям
Вы не можете скачивать файлы