Важное объявление!
У Нас Все раздачи мультитрекерные, при нуле пиров в релизах, можете смело вставать на закачку!
Статистика раздачи
Размер:     |    Зарегистрирован:     |    Скачан:     |   
Нет
 
     
 
 
Автор Сообщение

HUNTER

Стаж:
5 лет
Сообщений:
67910

Репутация: 101

[+] [-]
Вне форума [Профиль] [ЛС]

Аномализа
Anomalisa

Страна: США
Жанр: мультфильм, драма, мелодрама, комедия
Год выпуска: 2015
Продолжительность: 01:30:36
Перевод: Профессиональный (полное дублирование) [Blu-ray CEE]
Cубтитры: русские (форсированные)
Оригинальная аудиодорожка: нет
Режиссер: Дьюк Джонсон / Duke Johnson, Чарли Кауфман / Charlie Kaufman
В ролях: Дэвид Тьюлис, Дженнифер Джейсон Ли, Том Нунен
Описание:
Майкл Стоун, автор книг по обслуживанию клиентов, страдает от неспособности контактировать с людьми. Однажды, в ходе очередной рабочей поездки, он встречает незнакомку, которая меняет его мировосприятие.


Автор рипа: stalkerok
Сэмпл
Качество видео: BDRip-AVC [Anomalisa (2015) Blu-ray CEE 1080p AVC DD5.1 HDCLUB]
Формат видео: MKV
Видео: 1038 Кбит/сек, 960*400 (2,40:1), в 23,976 (24000/1001) кадра/сек, AVC
Аудио: русский, 112 Кбит/сек, 48,0 КГц, 2 канала, AAC (LC)
Навигация по главам: есть

MediaInfo

Общее
Уникальный идентификатор : 232963506402526635016115990982403297500 (0xAF4323A8B4DF2AA4A23BD83E626C10DC)
Полное имя : M:\2Rips\Anomalisa\Anomalisa.2015.BDRip-AVC.Dub.745Mb.stalkerok.new-team.mkv
Формат : Matroska
Версия формата : Version 4 / Version 2
Размер файла : 746 Мбайт
Продолжительность : 1 ч. 30 м.
Общий поток : 1152 Кбит/сек
Название фильма : Anomalisa (2015) (Rip by stalkerok)
Дата кодирования : UTC 2016-08-19 13:01:00
Программа кодирования : mkvmerge v8.6.1 ('Flying') 64bit
Библиотека кодирования : libebml v1.3.3 + libmatroska v1.4.4
Видео
Идентификатор : 1
Формат : AVC
Формат/Информация : Advanced Video Codec
Профиль формата : High@L4.1
Параметр CABAC формата : Да
Параметр ReFrames формата : 16 кадров
Идентификатор кодека : V_MPEG4/ISO/AVC
Продолжительность : 1 ч. 30 м.
Битрейт : 1038 Кбит/сек
Ширина : 960 пикселей
Высота : 400 пикселей
Соотношение сторон : 2,40:1
Режим частоты кадров : Постоянный
Частота кадров : 23,976 (24000/1001) кадра/сек
Цветовое пространство : YUV
Субдискретизация насыщенности : 4:2:0
Битовая глубина : 8 бит
Тип развёртки : Прогрессивная
Бит/(Пиксели*Кадры) : 0.113
Размер потока : 672 Мбайт (90%)
Заголовок : Anomalisa (2015) (Rip by stalkerok)
Библиотека кодирования : x264 core 148 r2705+54 9f484c1 t_mod_Custom [8-bit@all X86_64]
Настройки программы : cabac=1 / ref=16 / deblock=1:-1:-1 / analyse=0x3:0x133 / me=umh / subme=11 / psy=1 / fade_compensate=0.00 / psy_rd=1.00:0.00 / mixed_ref=1 / me_range=32 / chroma_me=1 / trellis=2 / 8x8dct=1 / cqm=0 / deadzone=21,11 / fast_pskip=0 / chroma_qp_offset=-2 / threads=12 / lookahead_threads=3 / sliced_threads=0 / nr=0 / decimate=0 / interlaced=0 / bluray_compat=0 / constrained_intra=0 / fgo=0 / bframes=16 / b_pyramid=2 / b_adapt=2 / b_bias=0 / direct=3 / weightb=1 / open_gop=0 / weightp=2 / keyint=240 / keyint_min=23 / scenecut=40 / intra_refresh=0 / rc_lookahead=60 / rc=2pass / mbtree=0 / bitrate=1038 / ratetol=1.0 / qcomp=0.65 / qpmin=0:0:0 / qpmax=69:69:69 / qpstep=4 / cplxblur=20.0 / qblur=0.5 / vbv_maxrate=50000 / vbv_bufsize=62500 / nal_hrd=none / filler=0 / ip_ratio=1.40 / pb_ratio=1.30 / aq=3:0.85 / aq-sensitivity=10.00 / aq-factor=1.00:1.00:1.00 / aq2=0 / aq3=0
Default : Да
Forced : Нет
Аудио
Идентификатор : 2
Формат : AAC
Формат/Информация : Advanced Audio Codec
Профиль формата : LC
Идентификатор кодека : A_AAC
Продолжительность : 1 ч. 30 м.
Битрейт : 112 Кбит/сек
Каналы : 2 канала
Расположение каналов : Front: L R
Частота : 48,0 КГц
Частота кадров : 46,875 кадров/сек (1024 spf)
Метод сжатия : С потерями
Задержка видео : 9 мс.
Размер потока : 72,6 Мбайт (10%)
Язык : Russian
Default : Да
Forced : Нет
Текст
Идентификатор : 3
Формат : UTF-8
Идентификатор кодека : S_TEXT/UTF8
Идентификатор кодека/Информация : UTF-8 Plain Text
Продолжительность : 1 ч. 10 м.
Битрейт : 0 бит/сек
Count of elements : 4
Размер потока : 174 байт (0%)
Заголовок : forced
Язык : Russian
Default : Да
Forced : Нет
Меню
00:00:00.000 : en:Chapter 1
00:05:09.434 : en:Chapter 2
00:12:29.415 : en:Chapter 3
00:18:27.147 : en:Chapter 4
00:18:27.189 : en:Chapter 5
00:25:26.483 : en:Chapter 6
00:31:39.647 : en:Chapter 7
00:37:24.700 : en:Chapter 8
00:43:19.930 : en:Chapter 9
00:52:19.219 : en:Chapter 10
01:01:04.452 : en:Chapter 11
01:07:04.979 : en:Chapter 12
01:14:43.479 : en:Chapter 13
01:19:26.762 : en:Chapter 14
01:19:27.554 : en:Chapter 15
01:23:23.999 : en:Chapter 16

Скриншоты


_________________
Показать сообщения:    

Текущее время: Сегодня 02:53

Часовой пояс: GMT



Вы не можете начинать темы
Вы не можете отвечать на сообщения
Вы не можете редактировать свои сообщения
Вы не можете удалять свои сообщения
Вы не можете голосовать в опросах
Вы не можете прикреплять файлы к сообщениям
Вы не можете скачивать файлы