Важное объявление!
У Нас Все раздачи мультитрекерные, при нуле пиров в релизах, можете смело вставать на закачку!
 
Автор Сообщение

HUNTER

Стаж:
4 года 6 месяцев
Сообщений:
60959

Репутация: 101

[+] [-]
Вне форума [Профиль] [ЛС]

Анна, это особое удовольствие / Секреты девушки по вызову / Anna, quel particolare piacere / Secrets of a Call Girl
Страна: Италия
Студия: Compagnia Cinematografica Champion / Dania Film
Жанр: драма, криминал
Год выпуска: 1973
Продолжительность: 01:34:49
Перевод: Одноголосый закадровый ССК+
Cубтитры: английские
Оригинальная аудиодорожка: итальянский
Режиссер: Джулиано Карнимео / Giuliano Carnimeo
В ролях: Эдвиг Фенек, Ричард Конте, Джон Ричардсон, Коррадо Пани, Лаура Бонопарте, Этторе Манни
Описание: Анна, красивая, но бедная девушка из провинциального Бергамо (Эдвиж Фенек) влюбляется в красавца мафиозо Гвидо, случайно забредшего в кафе, где она работает кассиром. После бурного и стремительного романа она уезжает с ним в Милан и попадает в цепкие объятия мафии, которая начинает использовать ее красоту в своих интересах, фактически превращая в элитную путану. Пытаясь вырваться из этой жизни и воспользовавшись тем, что ее сожитель и тиран Гвидо арестован Интерполом за перевозку наркотиков, беременная Анна бежит в Рим, где ее подруга помогает ей начать новую жизнь. Сможет ли Анна ускользнуть от мафии и найти новую любовь, вы узнаете, посмотрев эту душещипательную и слёзовыжимательную драму с элементами триллера и еврокрайма.
Доп. информация: Русская звуковая дорожка взята с этой раздачи http://rutracker.org/forum/viewtopic.php?t=4613342 автору большое спасибо.
За синхронизацию дорожки огромное спасибо Нордер
При пересборе двд были использованы программы:
PgcDemux - разделение компонентов диска на файлы
Muxman - мультиплексирование и авторинг DVD
VobBlanker - реавторинг DVD

Скрин завершения проекта

Бонусы: Интервью, трейлер, галерея.
Сэмпл: http://sendfile.su/1088082
Тип релиза: DVD9 (Custom)
Контейнер: DVD-Video
Видео: NTSC 16:9 (720x480) VBR Auto Pan&Scan
Аудио: Russian (Dolby AC3, 192 Кбит/сек, 2 ch)
Аудио 2: English (Dolby AC3, 192 Кбит/сек, 2 ch)
Аудио 3: Italiano (Dolby AC3, 192 Кбит/сек, 2 ch)
Формат субтитров: softsub (SRT)

DVDInfo

Size: 6.78 Gb ( 7 104 540 KBytes ) - DVD-9
Enabled regions: 1, 2, 3, 4, 5, 6, 7, 8
VTS_01 :
Play Length: 00:03:00
Video: NTSC 16:9 (720x480) VBR, Auto Pan&Scan
Audio:
Italiano (Dolby AC3, 2 ch)
English (Dolby AC3, 2 ch)
Subtitles:
English
English
VTS_02 :
Play Length: 00:22:35
Video: NTSC 16:9 (720x480) VBR, Auto Pan&Scan
Audio:
Italiano (Dolby AC3, 2 ch)
English (Dolby AC3, 2 ch)
Subtitles:
English
English
VTS_03 :
Play Length: 01:34:49
Video: NTSC 16:9 (720x480) VBR, Auto Pan&Scan
Audio:
Russian (Dolby AC3, 2 ch)
English (Dolby AC3, 2 ch)
Italiano (Dolby AC3, 2 ch)
Subtitles:
English
English
VTS_04 :
Play Length: 00:03:43
Video: NTSC 16:9 (720x480) VBR, Auto Pan&Scan
Audio:
Italiano (Dolby AC3, 2 ch)
English (Dolby AC3, 2 ch)
Subtitles:
English
English
Menu Video:
NTSC 4:3 (720x480) VBR
Menu Subtitles:
Not specified
Menu English Language Unit :
Root Menu

MediaInfo

Общее
Полное имя : M:\Anna, quel particolare piacere_1973\VIDEO_TS\VTS_03_1.VOB
Формат : MPEG-PS
Размер файла : 1024 Мбайт
Продолжительность : 19 м.
Режим общего битрейта : Переменный
Общий поток : 7473 Кбит/сек
Видео
Идентификатор : 224 (0xE0)
Формат : MPEG Video
Версия формата : Version 2
Профиль формата : Main@Main
Параметр BVOP формата : Да
Параметр матрицы формата : Выборочная
Продолжительность : 19 м.
Вид битрейта : Переменный
Битрейт : 6748 Кбит/сек
Максимальный битрейт : 8000 Кбит/сек
Ширина : 720 пикселей
Высота : 480 пикселей
Соотношение сторон : 16:9
Частота кадров : 29,970 кадров/сек
Стандарт вещания : NTSC
Цветовое пространство : YUV
Субдискретизация насыщенности : 4:2:0
Битовая глубина : 8 бит
Тип развёртки : Чересстрочная
Порядок развёртки : Верхнее поле первое
Метод сжатия : С потерями
Бит/(Пиксели*Кадры) : 0.652
Размер потока : 925 Мбайт (90%)
Аудио #1
Идентификатор : 189 (0xBD)-128 (0x80)
Формат : AC-3
Формат/Информация : Audio Coding 3
Расширение режима : CM (complete main)
Параметр Endianness формата : Big
Режим смешивания : DVD-Video
Продолжительность : 19 м.
Вид битрейта : Постоянный
Битрейт : 192 Кбит/сек
Каналы : 2 канала
Расположение каналов : Front: L R
Частота : 48,0 КГц
Битовая глубина : 16 бит
Метод сжатия : С потерями
Размер потока : 26,3 Мбайт (3%)
Аудио #2
Идентификатор : 189 (0xBD)-129 (0x81)
Формат : AC-3
Формат/Информация : Audio Coding 3
Расширение режима : CM (complete main)
Параметр Endianness формата : Big
Режим смешивания : DVD-Video
Продолжительность : 19 м.
Вид битрейта : Постоянный
Битрейт : 192 Кбит/сек
Каналы : 2 канала
Расположение каналов : Front: L R
Частота : 48,0 КГц
Битовая глубина : 16 бит
Метод сжатия : С потерями
Размер потока : 26,3 Мбайт (3%)
Аудио #3
Идентификатор : 189 (0xBD)-130 (0x82)
Формат : AC-3
Формат/Информация : Audio Coding 3
Расширение режима : CM (complete main)
Параметр Endianness формата : Big
Режим смешивания : DVD-Video
Продолжительность : 19 м.
Вид битрейта : Постоянный
Битрейт : 192 Кбит/сек
Каналы : 2 канала
Расположение каналов : Front: L R
Частота : 48,0 КГц
Битовая глубина : 16 бит
Метод сжатия : С потерями
Размер потока : 26,3 Мбайт (3%)
Текст #1
Идентификатор : 189 (0xBD)-32 (0x20)
Формат : RLE
Формат/Информация : Run-length encoding
Режим смешивания : DVD-Video
Текст #2
Идентификатор : 189 (0xBD)-33 (0x21)
Формат : RLE
Формат/Информация : Run-length encoding
Режим смешивания : DVD-Video
Меню

Постеры и обложка

Скриншоты меню


_________________
Показать сообщения:    

Текущее время: Сегодня 17:38

Часовой пояс: GMT



Вы не можете начинать темы
Вы не можете отвечать на сообщения
Вы не можете редактировать свои сообщения
Вы не можете удалять свои сообщения
Вы не можете голосовать в опросах
Вы не можете прикреплять файлы к сообщениям
Вы не можете скачивать файлы
Наши партнеры: интернет магазин Ивановского трикотажа textilla.ru