Ивановский Торрент трекер
Яндекс.Погода
 

[Цитировать]
HUNTER

Внимание! Релиз обновлен.
Добавлены звуковые дорожки с Советским дубляжем с вставками многоголосого перевода в отдельные фрагменты, вырезанные кинопрокатом.

Подробности изменений

23.10.2010
  • В рипы добавлены аудиодорожки Аудио #1: Русский; MP3; 2ch; 48Hz; CBR; 128 Kbps; | дубляж (Советский) с вставками многоголосого перевода (НТВ) в отдельные фрагменты, вырезанные советским кинопрокатом / двухголосый закадровый русский перевод.
  • С целью сохранения прежнего размера сборника и выполнения требований подраздела "Сборники на DVD" по удобству для записи на DVD диски, звуковые дорожки перекодированы в формат MP3.
  • Видеопоток остался без изменений.
  • Переименованы каталог и файлы раздачи.
Анжелика: Коллекция / Angelique Collection
Анжелика, маркиза ангелов; Великолепная Анжелика;
Анжелика и Король; Неукротимая Анжелика; Анжелика и Султан
Год выпуска: 1964-1968
Страна: Франция, Италия, Германия (ФРГ)
Жанр: мелодрама, приключения, история
Общая продолжительность: ~ 8 ч. 29 мин.
Перевод #1: дубляж (Советский) с вставками многоголосого перевода (НТВ) в отдельные фрагменты, вырезанные советским кинопрокатом / двухголосый закадровый русский перевод
Перевод #2: профессиональный многоголосый закадровый (НТВ)
Русские субтитры: есть-Режиссер: Бернар Бордери / Bernard Borderie
В ролях: Мишель Мерсье, Робер Оссейн, Джулиано Джемма, Жан Рошфор, Клод Жиро, Жак Тожа, Бернар Воренже, Роберт Хоффман, Анри Коган, Жак Мигно, Жермон Витал, Бернар Ла Жарриж, Пьер Хатет, Этчика Шуро, Шарль Ренье, Жак Кастело, Мадлен Лебо, Жан Озенн, Робер Порте, Женевьев Фонтанель, Роберто, Филип Лемер, Франсуа Местр, Жан-Луи Трентиньян, Ноэль Роквер, Роберто, Клэр Морье, Сами Фрей, Эстелла Блэин, Мишель Галабрю, Фрэд Уильямс, Рене Лефевр, Паскуаль Мартино, Филип Лем
Описание: Пять фильмов о приключениях великолепной Анжелики, которая пройдя все тяжелые испытания, преследования и соблазны в поисках своего мужа, графа Жоффрэ де Пейрака, обретает свое счастье и утраченную, казалось бы, любовь. Экранизация многотомного романа «Анжелика» Анн и Сержа Голон.
Детям рекомендуется просмотр совместно с родителями.-Качество: DVDRip (Исходник - 3хDVD "Angelique Collection" издания Lionsgate)
Формат: AVI Hardware (размер коллекции ~ 7998 МБ)
Видеокодек: XviD
Аудиокодек: AC3
Видео: 704x304; 23.976 fps; ~ 1800 Kbps
Аудио #1: Русский; MP3; 2ch; 48Hz; CBR; 128 Kbps; | дубляж (Советский) с вставками многоголосого перевода (НТВ) в отдельные фрагменты, вырезанные советским кинопрокатом / двухголосый закадровый русский перевод
Аудио #2: Русский; MP3; 2ch; 48Hz; CBR; 128 Kbps; | MVO (НТВ)
Аудио #3: Французский; MP3; 2ch; 48Hz; CBR; 112 Kbps; | Оригинал
Субтитры: Русские; SRT UTF-8
Дополнительная информация: Рипы сделаны с дисков DVD "Angelique Collection" издания Lionsgate, самых лучших по качеству видео на данное время. Все русские аудиодорожки имеют полный перевод. Для фильма "Великолепная Анжелика", вообще нет Советского дубляжа , т.к. он вышел в кинопрокат значительно позже и был с одноголосым закадровым переводом ( См. - http://rutracker.org/forum/viewtopic.php?p=14708917#14708917). Поэтому, для этого фильма, в Аудио#1 представлен современный двухголосый закадровый перевод. Все файлы коллекции можно записать на один DVD9 или два DVD5 (без разрезки файлов).
Дополнительные звуковые дорожки (отдельная раздача - http://rutracker.org/forum/viewtopic.php?t=3201261 ):
- Дубляж (английский); 192 Kbps, 48 KHz, 2 ch, AC3-Фильм 1. Анжелика, маркиза ангелов / Angеlique - marquise des anges
Год выпуска: 1964
Страна: Франция, Италия, Германия (ФРГ)
Жанр: мелодрама, приключения, история
Продолжительность: 01:56:36
Перевод #1: дубляж (Советский) с вставками многоголосого перевода (НТВ) в отдельные фрагменты, вырезанные советским кинопрокатом
Перевод #2: профессиональный многоголосый закадровый (НТВ)
Русские субтитры: есть
Описание: Действие происходит в XVII веке. Красавицу Анжелику без её согласия выдают замуж за знатного человека. Его богатство - это секрет добычи золота из породы, которым он владеет один во всей Франции и чуть ли не единственный во всем мире. Но, несмотря на это, Анжелика ненавидит его за хромую ногу и шрам на лице, но вскоре осознает, что её муж, граф Жоффрей де Пейрак, самый обаятельный, добрый и справедливый мужчина. Между Анжеликой и Жоффреем вспыхивают настоящие чувства, великолепная по силе любовь. Но вот король Людовик XIV приезжает в замок к графу, и его начинает терзать зависть к красавице-жене графа и его богатству. И тогда король и церковь идут на все, чтобы устранить неугодного им графа де Пейрака, даже на жестокую несправедливость. Как много ещё испытаний выпадет на долю Анжелики и Жоффрея? Но их любовь преодолевает всё...
Качество: DVDRip
Формат: AVI Hardware
Видеокодек: XviD
Аудиокодек: AC3
Видео: 704x304; 23.976 fps; 1850 Kbps
Аудио #1: Русский; MP3; 2ch; 48Hz; CBR; 128 Kbps; | дубляж (Советский) с вставками многоголосого перевода (НТВ) в отдельные фрагменты, вырезанные советским кинопрокатом
Аудио #2: Русский; MP3; 2ch; 48Hz; CBR; 128 Kbps; | MVO (НТВ)
Аудио #3: Французский; MP3; 2ch; 48Hz; CBR; 112 Kbps; | Оригинал
Субтитры: Русские; SRT UTF-8

Скриншоты. МедиаИнфо. Сравнение.

МедиаИнфо

General
Complete name : E:\MyRazd\Angeliques Collection.XviD\01.Anzhelika, markiza angelov.Dub.NTV.Fre.avi
Format : AVI
Format/Info : Audio Video Interleave
File size : 1.82 GiB
Duration : 1h 56mn
Overall bit rate : 2 236 Kbps
Movie name : Анжелика, маркиза ангелов
Writing application : VirtualDubMod 1.5.10.2 (build 2542/release)
Writing library : VirtualDubMod build 2542/release
Video
ID : 0
Format : MPEG-4 Visual
Format profile : AdvancedSimple@L5
Format settings, BVOP : Yes
Format settings, QPel : No
Format settings, GMC : No warppoints
Format settings, Matrix : Custom
Codec ID : XVID
Codec ID/Hint : XviD
Duration : 1h 56mn
Bit rate : 1 850 Kbps
Width : 704 pixels
Height : 304 pixels
Display aspect ratio : 2.35:1
Frame rate : 23.976 fps
Resolution : 24 bits
Colorimetry : 4:2:0
Scan type : Progressive
Bits/(Pixel*Frame) : 0.360
Stream size : 1.51 GiB (83%)
Writing library : XviD 1.2.1 (UTC 2008-12-04)
Audio #1
ID : 1
Format : MPEG Audio
Format version : Version 1
Format profile : Layer 3
Codec ID : 55
Codec ID/Hint : MP3
Duration : 1h 56mn
Bit rate mode : Constant
Bit rate : 128 Kbps
Channel(s) : 2 channels
Sampling rate : 48.0 KHz
Resolution : 16 bits
Stream size : 107 MiB (6%)
Alignment : Aligned on interleaves
Interleave, duration : 42 ms (1.00 video frame)
Interleave, preload duration : 504 ms
Title : Dub
Writing library : LAME3.98r
Encoding settings : -m s -V 4 -q 2 -lowpass 17 -b 128
Audio #2
ID : 2
Format : MPEG Audio
Format version : Version 1
Format profile : Layer 3
Codec ID : 55
Codec ID/Hint : MP3
Duration : 1h 56mn
Bit rate mode : Constant
Bit rate : 128 Kbps
Channel(s) : 2 channels
Sampling rate : 48.0 KHz
Resolution : 16 bits
Stream size : 107 MiB (6%)
Alignment : Aligned on interleaves
Interleave, duration : 42 ms (1.00 video frame)
Interleave, preload duration : 504 ms
Title : MVO(NTV)
Writing library : LAME3.98r
Encoding settings : -m s -V 4 -q 2 -lowpass 17 -b 128
Audio #3
ID : 3
Format : MPEG Audio
Format version : Version 1
Format profile : Layer 3
Codec ID : 55
Codec ID/Hint : MP3
Duration : 1h 56mn
Bit rate mode : Constant
Bit rate : 112 Kbps
Channel(s) : 2 channels
Sampling rate : 48.0 KHz
Resolution : 16 bits
Stream size : 93.4 MiB (5%)
Alignment : Aligned on interleaves
Interleave, duration : 42 ms (1.00 video frame)
Interleave, preload duration : 504 ms
Title : Original
Writing library : LAME3.98r
Encoding settings : -m s -V 4 -q 2 -lowpass 15.6 -b 112
Сравнение - //comparescreenshots.slicx.com/comparison/81627/picture:0 с раздачей - http://rutracker.org/forum/viewtopic.php?t=1751306.
-Фильм 2. Великолепная Анжелика / Merveilleuse Angelique
Год выпуска: 1965
Страна: Франция, Италия, Германия (ФРГ)
Жанр: мелодрама, приключения, история
Продолжительность: 01:44:43
Перевод #1: двухголосый закадровый русский перевод (RUSCICO)
Перевод #2: профессиональный многоголосый закадровый (НТВ)
Русские субтитры: есть
Описание: После смерти любимого мужа, графа Жоффрея де Пейрака, Анжелика хочет отомстить всем, кто повинен в его несправедливой казни. Но Анжелику выгнали из высшего общества, ведь она - вдова казненного "колдуна". От горя Анжелика даже хочет покончить с собой, но ей нужно жить ради сыновей и мести. Ради того, чтобы вернуться ко двору короля для достижения своих целей, она снова выходит замуж, на этот раз за своего кузена. Казалось бы, что её жизнь более или менее налаживается, но все ещё впереди...
Качество: DVDRip
Формат: AVI Hardware
Видеокодек: XviD
Аудиокодек: AC3
Видео: 704x304; 23.976 fps; 1850 Kbps
Аудио #1: Русский; MP3; 2ch; 48Hz; CBR; 128 Kbps; | DVO (RUSCICO)
Аудио #2: Русский; MP3; 2ch; 48Hz; CBR; 128 Kbps; | MVO (НТВ)
Аудио #3: Французский; MP3; 2ch; 48Hz; CBR; 112 Kbps; | Оригинал
Субтитры: Русские; SRT UTF-8
Дополнительная информация:
Для фильма "Великолепная Анжелика" отсутствует Советский дубляж, т.к. он вышел в кинопрокат значительно позже и был с одноголосым закадровым переводом ( См. - http://rutracker.org/forum/viewtopic.php?p=14708917#14708917). Поэтому, для этого фильма, в Аудио#1 представлен современный двухголосый закадровый перевод от RUSCICO.

Скриншоты. МедиаИнфо. Сравнение.

МедиаИнфо

General
Complete name : E:\MyRazd\Angeliques Collection.XviD\02.Velikolepnaya Anzhelika.DVO.NTV.Fre.avi
Format : AVI
Format/Info : Audio Video Interleave
File size : 1.64 GiB
Duration : 1h 44mn
Overall bit rate : 2 236 Kbps
Movie name : Великолепная Анжелика
Writing application : VirtualDubMod 1.5.10.2 (build 2542/release)
Writing library : VirtualDubMod build 2542/release
Video
ID : 0
Format : MPEG-4 Visual
Format profile : AdvancedSimple@L5
Format settings, BVOP : Yes
Format settings, QPel : No
Format settings, GMC : No warppoints
Format settings, Matrix : Custom
Codec ID : XVID
Codec ID/Hint : XviD
Duration : 1h 44mn
Bit rate : 1 850 Kbps
Width : 704 pixels
Height : 304 pixels
Display aspect ratio : 2.35:1
Frame rate : 23.976 fps
Resolution : 24 bits
Colorimetry : 4:2:0
Scan type : Progressive
Bits/(Pixel*Frame) : 0.360
Stream size : 1.35 GiB (83%)
Writing library : XviD 1.2.1 (UTC 2008-12-04)
Audio #1
ID : 1
Format : MPEG Audio
Format version : Version 1
Format profile : Layer 3
Codec ID : 55
Codec ID/Hint : MP3
Duration : 1h 44mn
Bit rate mode : Constant
Bit rate : 128 Kbps
Channel(s) : 2 channels
Sampling rate : 48.0 KHz
Resolution : 16 bits
Stream size : 95.9 MiB (6%)
Alignment : Aligned on interleaves
Interleave, duration : 42 ms (1.00 video frame)
Interleave, preload duration : 504 ms
Title : DVO(RUSCICO)
Writing library : LAME3.98r
Encoding settings : -m s -V 4 -q 2 -lowpass 17 -b 128
Audio #2
ID : 2
Format : MPEG Audio
Format version : Version 1
Format profile : Layer 3
Codec ID : 55
Codec ID/Hint : MP3
Duration : 1h 44mn
Bit rate mode : Constant
Bit rate : 128 Kbps
Channel(s) : 2 channels
Sampling rate : 48.0 KHz
Resolution : 16 bits
Stream size : 95.9 MiB (6%)
Alignment : Aligned on interleaves
Interleave, duration : 42 ms (1.00 video frame)
Interleave, preload duration : 504 ms
Title : MVO(NTV)
Writing library : LAME3.98r
Encoding settings : -m s -V 4 -q 2 -lowpass 17 -b 128
Audio #3
ID : 3
Format : MPEG Audio
Format version : Version 1
Format profile : Layer 3
Codec ID : 55
Codec ID/Hint : MP3
Duration : 1h 44mn
Bit rate mode : Constant
Bit rate : 112 Kbps
Channel(s) : 2 channels
Sampling rate : 48.0 KHz
Resolution : 16 bits
Stream size : 83.9 MiB (5%)
Alignment : Aligned on interleaves
Interleave, duration : 42 ms (1.00 video frame)
Interleave, preload duration : 504 ms
Title : Original
Writing library : LAME3.98r
Encoding settings : -m s -V 4 -q 2 -lowpass 15.6 -b 112
Сравнение - //comparescreenshots.slicx.com/comparison/81628/picture:0 с раздачей - http://rutracker.org/forum/viewtopic.php?t=1751306.
-Фильм 3. Анжелика и Король / Angelique et le Roi
Год выпуска: 1966
Страна: Франция, Италия, Германия (ФРГ)
Жанр: мелодрама, приключения, история
Продолжительность: 01:44:28
Перевод #1: дубляж (Советский) с вставками многоголосого перевода (НТВ) в отдельные фрагменты, вырезанные советским кинопрокатом
Перевод #2: профессиональный многоголосый закадровый (НТВ)
Русские субтитры: есть
Описание: Новый муж Анжелики — маркиз Филипп дю Плесси де Белльер — погибает на войне. Король Людовик XIV влюблен в Анжелику и ищет у неё взаимности. Но она винит короля в смерти своего первого мужа и самого любимого мужчины - графа Жоффрея де Пейрака. Король признается, что граф не был сожжен на Гревской площади - он бежал, но утонул в реке. Анжелика не знает, чему верить. Но с каждым днем она находит все подтверждений тому, что её муж не только не был казнен, но и что он все ещё жив. И однажды, под покровом ночи, в её дом пробирается не кто иной, как Жоффрей! Они встречаются взглядом, но де Пейрак понимает, что если Анжелика уйдет с ним, будет скрываться вместе с ним, то будет несчастна. С болью в сердце, он убегает из её дома, не сказв ни слова. Он не представляет, насколько велика любовь Анжелики - ради того, чтобы найти Жоффрея, она пойдет на все...
Качество: DVDRip
Формат: AVI Hardware
Видеокодек: XviD
Аудиокодек: AC3
Видео: 704x304; 23.976 fps; 1771 Kbps
Аудио #1: Русский; MP3; 2ch; 48Hz; CBR; 128 Kbps; | дубляж (Советский) с вставками многоголосого перевода (НТВ) в отдельные фрагменты, вырезанные советским кинопрокатом
Аудио #2: Русский; MP3; 2ch; 48Hz; CBR; 128 Kbps; | MVO (НТВ)
Аудио #3: Французский; MP3; 2ch; 48Hz; CBR; 112 Kbps; | Оригинал
Субтитры: Русские; SRT UTF-8

Скриншоты. МедиаИнфо. Сравнение.

МедиаИнфо

General
Complete name : E:\MyRazd\Angeliques Collection.XviD\03.Anzhelika i Korol.Dub.NTV.Fre.avi
Format : AVI
Format/Info : Audio Video Interleave
File size : 1.57 GiB
Duration : 1h 44mn
Overall bit rate : 2 157 Kbps
Movie name : Анжелика и король
Writing application : VirtualDubMod 1.5.10.2 (build 2542/release)
Writing library : VirtualDubMod build 2542/release
Video
ID : 0
Format : MPEG-4 Visual
Format profile : AdvancedSimple@L5
Format settings, BVOP : Yes
Format settings, QPel : No
Format settings, GMC : No warppoints
Format settings, Matrix : Custom
Codec ID : XVID
Codec ID/Hint : XviD
Duration : 1h 44mn
Bit rate : 1 771 Kbps
Width : 704 pixels
Height : 304 pixels
Display aspect ratio : 2.35:1
Frame rate : 23.976 fps
Resolution : 24 bits
Colorimetry : 4:2:0
Scan type : Progressive
Bits/(Pixel*Frame) : 0.345
Stream size : 1.29 GiB (82%)
Writing library : XviD 1.2.1 (UTC 2008-12-04)
Audio #1
ID : 1
Format : MPEG Audio
Format version : Version 1
Format profile : Layer 3
Codec ID : 55
Codec ID/Hint : MP3
Duration : 1h 44mn
Bit rate mode : Constant
Bit rate : 128 Kbps
Channel(s) : 2 channels
Sampling rate : 48.0 KHz
Resolution : 16 bits
Stream size : 95.7 MiB (6%)
Alignment : Aligned on interleaves
Interleave, duration : 42 ms (1.00 video frame)
Interleave, preload duration : 504 ms
Title : Dub
Writing library : LAME3.98r
Encoding settings : -m s -V 4 -q 2 -lowpass 17 -b 128
Audio #2
ID : 2
Format : MPEG Audio
Format version : Version 1
Format profile : Layer 3
Codec ID : 55
Codec ID/Hint : MP3
Duration : 1h 44mn
Bit rate mode : Constant
Bit rate : 128 Kbps
Channel(s) : 2 channels
Sampling rate : 48.0 KHz
Resolution : 16 bits
Stream size : 95.7 MiB (6%)
Alignment : Aligned on interleaves
Interleave, duration : 42 ms (1.00 video frame)
Interleave, preload duration : 504 ms
Title : MVO(NTV)
Writing library : LAME3.98r
Encoding settings : -m s -V 4 -q 2 -lowpass 17 -b 128
Audio #3
ID : 3
Format : MPEG Audio
Format version : Version 1
Format profile : Layer 3
Codec ID : 55
Codec ID/Hint : MP3
Duration : 1h 44mn
Bit rate mode : Constant
Bit rate : 112 Kbps
Channel(s) : 2 channels
Sampling rate : 48.0 KHz
Resolution : 16 bits
Stream size : 83.7 MiB (5%)
Alignment : Aligned on interleaves
Interleave, duration : 42 ms (1.00 video frame)
Interleave, preload duration : 504 ms
Title : Original
Writing library : LAME3.98r
Encoding settings : -m s -V 4 -q 2 -lowpass 15.6 -b 112
Сравнение - //comparescreenshots.slicx.com/comparison/81629/picture:0 с раздачей - http://rutracker.org/forum/viewtopic.php?t=1751306.
-Фильм 4. Неукротимая Анжелика / Indomptable Angelique
Год выпуска: 1967
Страна: Франция, Италия, Германия (ФРГ)
Жанр: мелодрама, приключения, история
Продолжительность: 01:25:32
Перевод #1: дубляж (Советский) с вставками многоголосого перевода (НТВ) в отдельные фрагменты, вырезанные советским кинопрокатом
Перевод #2: профессиональный многоголосый закадровый (НТВ)
Русские субтитры: есть
Описание: Узнав о том, что Жоффрэ жив, Анжелика устремляется на поиски мужа. Путь ее приводит на королевскую галеру, на которой капитан, пораженный красотой молодой женщины, попытался соблазнить Анжелику, но получает отказ. Чувствуя себя униженным, он бросает красавицу в трюм, а позже продаёт на невольничьем рынке. На аукционе идут ожесточенные торги за право обладать прелестной француженкой.
Качество: DVDRip
Формат: AVI Hardware
Видеокодек: XviD
Аудиокодек: AC3
Видео: 704x304; 23.976 fps; 1773 Kbps
Аудио #1: Русский; MP3; 2ch; 48Hz; CBR; 128 Kbps; | дубляж (Советский) с вставками многоголосого перевода (НТВ) в отдельные фрагменты, вырезанные советским кинопрокатом
Аудио #2: Русский; MP3; 2ch; 48Hz; CBR; 128 Kbps; | MVO (НТВ)
Аудио #3: Французский; MP3; 2ch; 48Hz; CBR; 112 Kbps; | Оригинал
Субтитры: Русские; SRT UTF-8

Скриншоты. МедиаИнфо. Сравнение.

МедиаИнфо

General
Complete name : E:\MyRazd\Angeliques Collection.XviD\04.Neykrotimaya Anzhelika.Dub.NTV.Fre.avi
Format : AVI
Format/Info : Audio Video Interleave
File size : 1.29 GiB
Duration : 1h 25mn
Overall bit rate : 2 159 Kbps
Movie name : Неукротимая Анжелика
Writing application : VirtualDubMod 1.5.10.2 (build 2542/release)
Writing library : VirtualDubMod build 2542/release
Video
ID : 0
Format : MPEG-4 Visual
Format profile : AdvancedSimple@L5
Format settings, BVOP : Yes
Format settings, QPel : No
Format settings, GMC : No warppoints
Format settings, Matrix : Custom
Codec ID : XVID
Codec ID/Hint : XviD
Duration : 1h 25mn
Bit rate : 1 773 Kbps
Width : 704 pixels
Height : 304 pixels
Display aspect ratio : 2.35:1
Frame rate : 23.976 fps
Resolution : 24 bits
Colorimetry : 4:2:0
Scan type : Progressive
Bits/(Pixel*Frame) : 0.345
Stream size : 1.06 GiB (82%)
Writing library : XviD 1.2.1 (UTC 2008-12-04)
Audio #1
ID : 1
Format : MPEG Audio
Format version : Version 1
Format profile : Layer 3
Codec ID : 55
Codec ID/Hint : MP3
Duration : 1h 25mn
Bit rate mode : Constant
Bit rate : 128 Kbps
Channel(s) : 2 channels
Sampling rate : 48.0 KHz
Resolution : 16 bits
Stream size : 78.3 MiB (6%)
Alignment : Aligned on interleaves
Interleave, duration : 42 ms (1.00 video frame)
Interleave, preload duration : 504 ms
Title : Dub
Writing library : LAME3.98r
Encoding settings : -m s -V 4 -q 2 -lowpass 17 -b 128
Audio #2
ID : 2
Format : MPEG Audio
Format version : Version 1
Format profile : Layer 3
Codec ID : 55
Codec ID/Hint : MP3
Duration : 1h 25mn
Bit rate mode : Constant
Bit rate : 128 Kbps
Channel(s) : 2 channels
Sampling rate : 48.0 KHz
Resolution : 16 bits
Stream size : 78.3 MiB (6%)
Alignment : Aligned on interleaves
Interleave, duration : 42 ms (1.00 video frame)
Interleave, preload duration : 504 ms
Title : MVO(NTV)
Writing library : LAME3.98r
Encoding settings : -m s -V 4 -q 2 -lowpass 17 -b 128
Audio #3
ID : 3
Format : MPEG Audio
Format version : Version 1
Format profile : Layer 3
Codec ID : 55
Codec ID/Hint : MP3
Duration : 1h 25mn
Bit rate mode : Constant
Bit rate : 112 Kbps
Channel(s) : 2 channels
Sampling rate : 48.0 KHz
Resolution : 16 bits
Stream size : 68.5 MiB (5%)
Alignment : Aligned on interleaves
Interleave, duration : 42 ms (1.00 video frame)
Interleave, preload duration : 504 ms
Title : Original
Writing library : LAME3.98r
Encoding settings : -m s -V 4 -q 2 -lowpass 15.6 -b 112
Сравнение - //comparescreenshots.slicx.com/comparison/81630/picture:0 с раздачей - http://rutracker.org/forum/viewtopic.php?t=1751306.
-Фильм 5. Анжелика и Султан / Angelique et le Sultan
Год выпуска: 1968
Страна: Франция, Италия, Германия (ФРГ)
Жанр: мелодрама, приключения, история
Продолжительность: 01:37:26
Перевод #1: дубляж (Советский) с вставками многоголосого перевода (НТВ) в отдельные фрагменты, вырезанные советским кинопрокатом
Перевод #2: профессиональный многоголосый закадровый (НТВ)
Русские субтитры: есть
Описание: Пираты продают Анжелику турецкому султану. Она не хочет мириться с этим. После долгих мучений в гареме, Анжелика совершает побег. А тем временем Жоффрей де Пейрак ищет Анжелику. Ему тоже приходится тяжело, но он знает, ради чего он это делает. Он выясняет, где его любимая, и за её свободу отдает султану то, что всегда делало его богатым - секрет добычи золота из породы. но Анжелика бежала. Тем не менее воины султана находят её, но лишь для того, чтобы вернуть её мужу. И в итоге Анжелика и Жоффрей оказываются вместе. Они прошли через столько испытаний и заслужили свое счастье. Их великая, непобедимая и вечная любовь оказалась сильнее огня, воды, властей, принуждения и разлуки. Они плывут на корабле, вперед к свободе и счастью!!!
Качество: DVDRip
Формат: AVI Hardware
Видеокодек: XviD
Аудиокодек: AC3
Видео: 704x304; 23.976 fps; 1799 Kbps
Аудио #1: Русский; MP3; 2ch; 48Hz; CBR; 128 Kbps; | дубляж (Советский) с вставками многоголосого перевода (НТВ) в отдельные фрагменты, вырезанные советским кинопрокатом
Аудио #2: Русский; MP3; 2ch; 48Hz; CBR; 128 Kbps; | MVO (НТВ)
Аудио #3: Французский; MP3; 2ch; 48Hz; CBR; 112 Kbps; | Оригинал
Субтитры: Русские; SRT UTF-8

Скриншоты. МедиаИнфо. Сравнение.

МедиаИнфо

General
Complete name : E:\MyRazd\Angeliques Collection.XviD\05.Anzhelika i Syltan.Dub.NTV.Fre.avi
Format : AVI
Format/Info : Audio Video Interleave
File size : 1.49 GiB
Duration : 1h 37mn
Overall bit rate : 2 185 Kbps
Movie name : Анжелика и султан
Writing application : VirtualDubMod 1.5.10.2 (build 2542/release)
Writing library : VirtualDubMod build 2542/release
Video
ID : 0
Format : MPEG-4 Visual
Format profile : AdvancedSimple@L5
Format settings, BVOP : Yes
Format settings, QPel : No
Format settings, GMC : No warppoints
Format settings, Matrix : Custom
Codec ID : XVID
Codec ID/Hint : XviD
Duration : 1h 37mn
Bit rate : 1 799 Kbps
Width : 704 pixels
Height : 304 pixels
Display aspect ratio : 2.35:1
Frame rate : 23.976 fps
Resolution : 24 bits
Colorimetry : 4:2:0
Scan type : Progressive
Bits/(Pixel*Frame) : 0.351
Stream size : 1.22 GiB (82%)
Writing library : XviD 1.2.1 (UTC 2008-12-04)
Audio #1
ID : 1
Format : MPEG Audio
Format version : Version 1
Format profile : Layer 3
Codec ID : 55
Codec ID/Hint : MP3
Duration : 1h 37mn
Bit rate mode : Constant
Bit rate : 128 Kbps
Channel(s) : 2 channels
Sampling rate : 48.0 KHz
Resolution : 16 bits
Stream size : 89.2 MiB (6%)
Alignment : Aligned on interleaves
Interleave, duration : 42 ms (1.00 video frame)
Interleave, preload duration : 504 ms
Title : Dub
Writing library : LAME3.98r
Encoding settings : -m s -V 4 -q 2 -lowpass 17 -b 128
Audio #2
ID : 2
Format : MPEG Audio
Format version : Version 1
Format profile : Layer 3
Codec ID : 55
Codec ID/Hint : MP3
Duration : 1h 37mn
Bit rate mode : Constant
Bit rate : 128 Kbps
Channel(s) : 2 channels
Sampling rate : 48.0 KHz
Resolution : 16 bits
Stream size : 89.2 MiB (6%)
Alignment : Aligned on interleaves
Interleave, duration : 42 ms (1.00 video frame)
Interleave, preload duration : 504 ms
Title : MVO(NTV)
Writing library : LAME3.98r
Encoding settings : -m s -V 4 -q 2 -lowpass 17 -b 128
Audio #3
ID : 3
Format : MPEG Audio
Format version : Version 1
Format profile : Layer 3
Codec ID : 55
Codec ID/Hint : MP3
Duration : 1h 37mn
Bit rate mode : Constant
Bit rate : 112 Kbps
Channel(s) : 2 channels
Sampling rate : 48.0 KHz
Resolution : 16 bits
Stream size : 78.1 MiB (5%)
Alignment : Aligned on interleaves
Interleave, duration : 42 ms (1.00 video frame)
Interleave, preload duration : 504 ms
Title : Original
Writing library : LAME3.98r
Encoding settings : -m s -V 4 -q 2 -lowpass 15.6 -b 112
Сравнение - //comparescreenshots.slicx.com/comparison/81631/picture:0 с раздачей - http://rutracker.org/forum/viewtopic.php?t=1751306.
-Огромное спасибо авторам say42, KomC, Black-Devil, dchild, Serj_ua_fr за материалы их раздач,
использованные при создании данного релиза.
Отдельная благодарность Amazon.com и DHL за оригинальные диски.

Как добавить отдельную аудиодорожку в AVI рип для просмотра на аппаратном плеере:

Если Вы намерены коллекционировать AVI рипы фильмов для просмотра на "железных" плеерах, то Вам просто необходимо уметь подсоединять дополнительные аудиодорожки к видеофайлу. Ничего сложного в этом нет, занимает весь процесс, не более 2-4 минут. Для этого Вам необходимо иметь программу VirtualDubMod и проделать следующие операции:
1. Открыть видеофайл через пункт меню "File -> Open video file".
2. Теперь выставляем обязательно опцию "Video -> Direct stream copy", чтобы программа ничего не перекодировала.
3. Переходим в меню "Streams -> Stream list". Видим окно со списком аудио дорожек. Чтобы добавить дорожку жмем на кнопку "add" и выбираем файл с добавляемой звуковой дорожкой. Кнопками "Move up / Move down" можно переместить её на нужную позицию.
4. Далее сохраняем результат через "File -> Save as" с новым именем файла, в виде " Новое имя.avi ", обязательно укажите расширение - avi.
5. Выходите из программы VirtualDubMod и смотрите видеофайл с уже добавленной дорожкой.
Проблемы воспроизведения видео формата AVI на бытовых DVD проигрывателях
и способы их решения
- http://rutracker.org/forum/viewtopic.php?t=2277953 .
Показать сообщения:    

Текущее время: 23-Окт 03:32

Часовой пояс: UTC - 1


Вы не можете начинать темы
Вы не можете отвечать на сообщения
Вы не можете редактировать свои сообщения
Вы не можете удалять свои сообщения
Вы не можете голосовать в опросах
Вы не можете прикреплять файлы к сообщениям
Вы не можете скачивать файлы

!ВНИМАНИЕ!
Сайт не предоставляет электронные версии произведений, а занимается лишь коллекционированием и каталогизацией ссылок, присылаемых и публикуемых на форуме нашими читателями. Если вы являетесь правообладателем какого-либо представленного материала и не желаете, чтобы ссылка на него находилась в нашем каталоге, свяжитесь с нами, и мы незамедлительно удалим ее. Файлы для обмена на трекере предоставлены пользователями сайта, и администрация не несет ответственности за их содержание. Просьба не заливать файлы, защищенные авторскими правами, а также файлы нелегального содержания!