Андроид-полицейский / Android Cop (Марк Аткинс) [2014, фантастика, боевик, HDRip][Vano] :: Ивановский Торрент трекер
Важное объявление!
У Нас Все раздачи мультитрекерные, при нуле пиров в релизах, можете смело вставать на закачку!
Статистика раздачи
Размер:     |    Зарегистрирован:     |    Скачан:     |   
Нет
 
     
 
 
Автор Сообщение

HUNTER

Стаж:
4 года 11 месяцев
Сообщений:
66112

Репутация: 101

[+] [-]
Вне форума [Профиль] [ЛС]

Андроид-полицейский / Android Cop-Год выпуска: 2014
Страна: США
Жанр: фантастика, боевик
Продолжительность: 01:28:34
Перевод: Любительский (одноголосый) [Vano]
Субтитры: Нет-В ролях: Майкл Джей Уайт, Чарльз С. Даттон, Кадим Хардисон, Рэнди Уэйн, Ларисса Вереса, Каиви Лайман, Джей Гиллеспи, Морган Бенуа, Эдриэнн МакКуин, Маркус Широк-Режиссёр: Марк Аткинс- -Лос-Анджелес 2045 года. Полицейский и его роботизированный напарник проникают в запретный анклав, населённый людьми, поражёнными неизвестным заболеванием. Вместе герои открывают истинную причину болезни и делают всё, чтобы её остановить.-Качество: HDRip
Формат: AVI
Видео кодек: XviD
Аудио кодек: АС3
Видео: XviD, 720x400, 1752 Кбит/сек, 23.976 кадр/сек
Аудио 1: АС3, 448 Кбит/сек, 6 канала(ов), 48,0 КГц
-

MediaInfo:

General
Complete name : C:\Users\Електростаил\Desktop\Рипы\Android.Cop.2014.HDRip.avi
Format : AVI
Format/Info : Audio Video Interleave
File size : 1.37 GiB
Duration : 1h 28mn
Overall bit rate : 2 209 Kbps
Writing application : VirtualDubMod 1.5.10.2 (build 2540/release)
Writing library : VirtualDubMod build 2540/release
Video
ID : 0
Format : MPEG-4 Visual
Format profile : Advanced Simple@L5
Format settings, BVOP : Yes
Format settings, QPel : No
Format settings, GMC : No warppoints
Format settings, Matrix : Default (MPEG)
Codec ID : XVID
Codec ID/Hint : XviD
Duration : 1h 28mn
Bit rate : 1 752 Kbps
Width : 720 pixels
Height : 400 pixels
Display aspect ratio : 16:9
Frame rate : 23.976 fps
Color space : YUV
Chroma subsampling : 4:2:0
Bit depth : 8 bits
Scan type : Progressive
Compression mode : Lossy
Bits/(Pixel*Frame) : 0.254
Stream size : 1.08 GiB (79%)
Writing library : XviD 1.2.1 (UTC 2008-12-04)
Audio
ID : 1
Format : AC-3
Format/Info : Audio Coding 3
Mode extension : CM (complete main)
Format settings, Endianness : Big
Codec ID : 2000
Duration : 1h 28mn
Bit rate mode : Constant
Bit rate : 448 Kbps
Channel count : 6 channels
Channel positions : Front: L C R, Side: L R, LFE
Sampling rate : 48.0 KHz
Bit depth : 16 bits
Compression mode : Lossy
Stream size : 284 MiB (20%)
Alignment : Split accross interleaves
Interleave, duration : 42 ms (1.00 video frame)
Interleave, preload duration : 500 ms

Скриншоты:

-Источник:

_________________
Показать сообщения:    

Текущее время: Сегодня 00:31

Часовой пояс: GMT



Вы не можете начинать темы
Вы не можете отвечать на сообщения
Вы не можете редактировать свои сообщения
Вы не можете удалять свои сообщения
Вы не можете голосовать в опросах
Вы не можете прикреплять файлы к сообщениям
Вы не можете скачивать файлы