Важное объявление!
У Нас Все раздачи мультитрекерные, при нуле пиров в релизах, можете смело вставать на закачку!
 
Автор Сообщение

mihis

[Профиль] [ЛС]

Ангел мести / The Avenging Angel«Он обучен защищать, служить, убивать.»
Год выпуска: 1995
Страна: США, Esparza / Katz Productions, First Corps Endeavors, Curtis/Lowe Productions
Жанр: Вестерн
Продолжительность: 01:32:48
Перевод: Профессиональный (многоголосый, закадровый)
Субтитры:Нет
Режиссер: Крэйг Р. Бэксли
В ролях: Том Беренджер, Джеймс Коберн, Чарлтон Хестон, Фэй Мастерсон, Кевин Тай, Джеффри Джонс, Том Бауэр, Лесли Хоуп, Дэниэл Куинн, Эндрю Прайн, Лиза Бейнс
Описание: Опытный телохранитель Брайама Янга, Майлз Атли был воспитан в духе смертельной борьбы за веру. Он — один из самых опасных людей на свете. Он поклялся защищать своих единоверцев и их могущественного лидера от всех внешних врагов. Майлзу удалось предотвратить покушение на жизнь Брайама, и теперь его задача — найти заговорщиков. Его возлюбленная — дочь Брайма, — единственный союзник в охоте на злодеев. Жестокие перестрелки и полночные лесные похороны. Попав в коварные сети заговора, Майлз должен приложить все свои способности и напрячь все свои силы, чтобы распутать коварные сети лжи и измены. Только тогда он сможет понять, что его использовали как пешку в игре против лидера Мормонской Церкви.

Качество: VHSRip
Формат: AVI
Видео кодек: DivX
Аудио кодек: AC3
Видео: 640x480 (1.33:1), 25 fps, DivX Codec 5.x or 6.x ~1874 kbps avg, 0.24 bit/pixel
Аудио: 48 kHz, AC3 Dolby Digital, 2/0 (L,R) ch, ~192.00 kbps avg

MediaInfo

Complete name : D:\Video\THE_AVENGING_ANGEL.avi
Format : AVI
Format/Info : Audio Video Interleave
File size : 1.35 GiB
Duration : 1h 32mn
Overall bit rate : 2 076 Kbps
Writing library : VirtualDub build 18160/release
Video
ID : 0
Format : MPEG-4 Visual
Format settings, BVOP : 1
Format settings, QPel : No
Format settings, GMC : No warppoints
Format settings, Matrix : Default (H.263)
Muxing mode : Packed bitstream
Codec ID : DX50
Codec ID/Hint : DivX 5
Duration : 1h 32mn
Bit rate : 1 875 Kbps
Width : 640 pixels
Height : 480 pixels
Display aspect ratio : 4:3
Frame rate : 25.000 fps
Color space : YUV
Chroma subsampling : 4:2:0
Bit depth : 8 bits
Scan type : Progressive
Compression mode : Lossy
Bits/(Pixel*Frame) : 0.244
Stream size : 1.22 GiB (90%)
Writing library : DivX 6.8.3-6.8.4 (UTC 2008-06-07)
Audio
ID : 1
Format : AC-3
Format/Info : Audio Coding 3
Mode extension : CM (complete main)
Format settings, Endianness : Big
Codec ID : 2000
Duration : 1h 32mn
Bit rate mode : Constant
Bit rate : 192 Kbps
Channel(s) : 2 channels
Channel positions : Front: L R
Sampling rate : 48.0 KHz
Bit depth : 16 bits
Compression mode : Lossy
Stream size : 127 MiB (9%)
Alignment : Aligned on interleaves
Interleave, duration : 40 ms (1.00 video frame)
Interleave, preload duration : 512 ms
 
Показать сообщения:    

Текущее время: Сегодня 19:06

Часовой пояс: GMT



Вы не можете начинать темы
Вы не можете отвечать на сообщения
Вы не можете редактировать свои сообщения
Вы не можете удалять свои сообщения
Вы не можете голосовать в опросах
Вы не можете прикреплять файлы к сообщениям
Вы не можете скачивать файлы
Наши партнеры: интернет магазин Ивановского трикотажа textilla.ru