Ивановский Торрент трекер
Яндекс.Погода
 

[Цитировать]
HUNTER

Ангел и злодей / Ангел и негодяй / Angel and the Badman- Год выпуска: 1947
Страна: США
Жанр: вестерн, мелодрама
Продолжительность: 01:39:59
Перевод 1: Профессиональный (двухголосый закадровый) СВ-Дубль
Перевод 2: Студийный (одноголосый закадровый) Светла
Оригинальная аудиодорожка: Английская
Cубтитры: Английские-Режиссер: Джеймс Эдвард Грант / James Edward Grant
В ролях: Джон Уэйн, Гэйл Расселл, Гарри Кэри, Брюс Кэбот, Ирен Рич, Ли Диксон-Описание:
Известный ковбой Курт Эванс (Джон Уэйн), уходя от погони, попадает на ферму семьи квакеров Уортов. Дочь хозяина, юная Пенелопа (Гэйл Расселл), сразу и безоглядно влюбляется в него и простодушно признается в этом Курту. Закаленное в набегах и драках сердце ковбоя не может не отозваться на столь искреннее признание.-За синхронизацию звука спасибо miha2154, за "СВ-Дубль" спасибо palmeiras.
| IMDb | Сэмпл-Качество: BDRip 720p (KG)
Контейнер: MKV
Видео: x264, 960x720 (1.33:1), 23.976 fps, 6144 kbps
Аудио 1: Русский AС3, 2.0, 48 kHz, 192 kbps — СВ-Дубль
Аудио 2: Русский AС3, 2.0, 48 kHz, 192 kbps — Светла
Аудио 3: Английский FLAC 1.0, 48 kHz, 299 kbps
Формат субтитров: softsub (SRT)

Скриншоты


MI

General
Unique ID : 208806018444032849577840772016562495580 (0x9D16938B9B0DE31BAEE6BE20614FE05C)
Complete name : Angel.and.the.Badman.1947.720p.BluRay.x264-KG.mkv
Format : Matroska
Format version : Version 2
File size : 4.77 GiB
Duration : 1h 39mn
Overall bit rate mode : Variable
Overall bit rate : 6 827 Kbps
Movie name : Angel and the Badman / Ангел и злодей (1947) – RuTracker
Encoded date : UTC 2014-04-07 20:31:55
Writing application : mkvmerge v6.1.0 ('Old Devil') built on Mar 2 2013 14:32:37
Writing library : libebml v1.3.0 + libmatroska v1.4.0
Attachment : Yes
Video
ID : 1
Format : AVC
Format/Info : Advanced Video Codec
Format profile : High@L4.1
Format settings, CABAC : Yes
Format settings, ReFrames : 8 frames
Codec ID : V_MPEG4/ISO/AVC
Duration : 1h 39mn
Bit rate mode : Variable
Nominal bit rate : 6 144 Kbps
Maximum bit rate : 62.5 Mbps
Width : 960 pixels
Height : 720 pixels
Display aspect ratio : 4:3
Frame rate mode : Constant
Frame rate : 23.976 fps
Color space : YUV
Chroma subsampling : 4:2:0
Bit depth : 8 bits
Scan type : Progressive
Bits/(Pixel*Frame) : 0.371
Title : Angel.and.the.Badman.1947.720p.BluRay.x264-KG
Writing library : x264 core 129 r2245 bc13772
Encoding settings : cabac=1 / ref=8 / deblock=1:-1:-1 / analyse=0x3:0x133 / me=umh / subme=9 / psy=1 / psy_rd=1.00:0.15 / mixed_ref=1 / me_range=16 / chroma_me=1 / trellis=2 / 8x8dct=1 / cqm=0 / deadzone=21,11 / fast_pskip=1 / chroma_qp_offset=-3 / threads=6 / lookahead_threads=1 / sliced_threads=0 / nr=0 / decimate=1 / interlaced=0 / bluray_compat=0 / constrained_intra=0 / bframes=3 / b_pyramid=0 / b_adapt=2 / b_bias=0 / direct=3 / weightb=1 / open_gop=0 / weightp=2 / keyint=240 / keyint_min=24 / scenecut=40 / intra_refresh=0 / rc_lookahead=60 / rc=2pass / mbtree=1 / bitrate=6144 / ratetol=1.0 / qcomp=0.60 / qpmin=0 / qpmax=69 / qpstep=4 / cplxblur=20.0 / qblur=0.5 / vbv_maxrate=62500 / vbv_bufsize=62500 / nal_hrd=vbr / ip_ratio=1.40 / aq=1:1.00
Language : English
Default : Yes
Forced : No
Audio #1
ID : 2
Format : AC-3
Format/Info : Audio Coding 3
Mode extension : CM (complete main)
Format settings, Endianness : Big
Codec ID : A_AC3
Duration : 1h 39mn
Bit rate mode : Constant
Bit rate : 192 Kbps
Channel(s) : 2 channels
Channel positions : Front: L R
Sampling rate : 48.0 KHz
Bit depth : 16 bits
Compression mode : Lossy
Stream size : 137 MiB (3%)
Title : DVO – СВ-Дубль
Language : Russian
Default : Yes
Forced : No
Audio #2
ID : 3
Format : AC-3
Format/Info : Audio Coding 3
Mode extension : CM (complete main)
Format settings, Endianness : Big
Codec ID : A_AC3
Duration : 1h 39mn
Bit rate mode : Constant
Bit rate : 192 Kbps
Channel(s) : 2 channels
Channel positions : Front: L R
Sampling rate : 48.0 KHz
Bit depth : 16 bits
Compression mode : Lossy
Stream size : 137 MiB (3%)
Title : VO – Светла
Language : Russian
Default : No
Forced : No
Audio #3
ID : 4
Format : FLAC
Format/Info : Free Lossless Audio Codec
Codec ID : A_FLAC
Duration : 1h 39mn
Bit rate mode : Variable
Channel(s) : 1 channel
Sampling rate : 48.0 KHz
Bit depth : 16 bits
Title : Original
Writing library : libFLAC 1.2.1 (UTC 2007-09-17)
Language : English
Default : No
Forced : No
Text
ID : 5
Format : UTF-8
Codec ID : S_TEXT/UTF8
Codec ID/Info : UTF-8 Plain Text
Language : English
Default : No
Forced : No
Menu
00:00:00.000 : en:Chapter 01
00:11:49.039 : en:Chapter 02
00:21:53.768 : en:Chapter 03
00:36:09.581 : en:Chapter 04
00:43:33.983 : en:Chapter 05
00:57:17.139 : en:Chapter 06
01:11:13.558 : en:Chapter 07
01:27:40.669 : en:Chapter 08
01:39:57.906 : en:Chapter 09


Показать сообщения:    

Текущее время: 12-Дек 20:03

Часовой пояс: UTC ± 0


Вы не можете начинать темы
Вы не можете отвечать на сообщения
Вы не можете редактировать свои сообщения
Вы не можете удалять свои сообщения
Вы не можете голосовать в опросах
Вы не можете прикреплять файлы к сообщениям
Вы не можете скачивать файлы

!ВНИМАНИЕ!
Сайт не предоставляет электронные версии произведений, а занимается лишь коллекционированием и каталогизацией ссылок, присылаемых и публикуемых на форуме нашими читателями. Если вы являетесь правообладателем какого-либо представленного материала и не желаете, чтобы ссылка на него находилась в нашем каталоге, свяжитесь с нами, и мы незамедлительно удалим ее. Файлы для обмена на трекере предоставлены пользователями сайта, и администрация не несет ответственности за их содержание. Просьба не заливать файлы, защищенные авторскими правами, а также файлы нелегального содержания!