Важное объявление!
У Нас Все раздачи мультитрекерные, при нуле пиров в релизах, можете смело вставать на закачку!
Статистика раздачи
Размер:     |    Зарегистрирован:     |    Скачан:     |   
Нет
 
     
 
 
Автор Сообщение

Savaris

Стаж:
6 лет 5 месяцев
Сообщений:
156

Репутация: 40

[+] [-]
Вне форума [Профиль] [ЛС]

Ангелы Смерти | Burst Angel | Bakuretsu Tenshi --Год выпуска: 2004
Страна: Япония
Жанр: приключения, комедия, меха, этти
Продолжительность: 24 эп. + 6 спэшлов, 25 мин.-Перевод:-
  • Озвучка-
    • Оригинальная Японская
    • Профессиональная многоголосая (закадровая) от Mega-Anime
    -
  • Субтитры:-
    • Русский СофтСаб от Mega-Anime
-Режиссер: Охата Койти
Сценарий: Симо Фумихико
Студия производитель
-Описание: Будущее, год 20XX. Токио все больше погружается в хаос преступности и жестокости. Чтобы хоть как-то сохранить порядок, правительство разрешает обычным гражданам носить оружие. Но даже специально созданное полицейское спецподразделение РАПТ не в силах защитить людей, живущих в постоянном страхе. Кто может спасти раздираемый насилием, обреченный город? Только ангелы. И тут они являются - Ангелы смерти, четыре юных и прекрасных девушки: Джо, Мег, Сей, Эмми. Они - единственная надежда, которая есть у жителей города…-Доп. информация: ANN || AniDB || MAL || WiKi || World-Art
Порядок просмотра:
#1 Ангелы Смерти [ТВ] - ТВ (24 эп. + 6 спэшлов), оригинальный сериал, 2004 (c)
#2 Ангелы Смерти OVA - OAV (1 эп. + 3 спэшла), дополнение, 2007-
--Качество: BDRip [Dez]
Линковка: нет
Формат: Matroska
Видео кодек: AVC (h.264)
Аудио кодек: AC3
Видео: AVC (h,264), 1024x586, 3500 Kbps, 23.976 fps
Аудио №1: JP- AC3, 48.0 kHz stereo, 5.1 ch, 640 Kbps
Аудио №2: RUS- AC3, 48.0 kHz stereo, 5.1 ch, 450 Kbps

M.I.

Код:
Format                                   : Matroska
Format version                           : Version 2
File size                                : 697 MiB
Duration                                 : 23mn 30s
Overall bit rate                         : 4 146 Kbps
Movie name                               : Bakuretsu Tenshi - 01 [Dez]
Encoded date                             : UTC 2010-11-25 11:18:17
Writing application                      : mkvmerge v2.8.0 ('The Tree') built on May  9 2009 18:02:06
Writing library                          : libebml v0.7.7 + libmatroska v0.8.1
Video
ID                                       : 1
Format                                   : AVC
Format/Info                              : Advanced Video Codec
Format profile                           : High@L4.1
Format settings, CABAC                   : Yes
Format settings, ReFrames                : 8 frames
Codec ID                                 : V_MPEG4/ISO/AVC
Duration                                 : 23mn 30s
Bit rate                                 : 3 423 Kbps
Width                                    : 1 024 pixels
Height                                   : 586 pixels
Display aspect ratio                     : 16:9
Frame rate                               : 23.976 fps
Color space                              : YUV
Chroma subsampling                       : 4:2:0
Bit depth                                : 8 bits
Scan type                                : Progressive
Bits/(Pixel*Frame)                       : 0.238
Stream size                              : 575 MiB (83%)
Title                                    : BDRip, encoded by Dez
Writing library                          : BDRip,encoded-by-Dez
Language                                 : English
Default                                  : Yes
Forced                                   : No
Audio
ID                                       : 2
Format                                   : AC-3
Format/Info                              : Audio Coding 3
Mode extension                           : CM (complete main)
Codec ID                                 : A_AC3
Duration                                 : 23mn 30s
Bit rate mode                            : Constant
Bit rate                                 : 640 Kbps
Channel(s)                               : 6 channels
Channel positions                        : Front: L C R, Side: L R, LFE
Sampling rate                            : 48.0 KHz
Bit depth                                : 16 bits
Compression mode                         : Lossy
Stream size                              : 108 MiB (15%)
Title                                    : 5.1
Language                                 : Japanese
Default                                  : Yes
Forced                                   : No
Menu
00:00:00.000                             : en:Intro
00:01:52.700                             : en:OP
00:03:21.400                             : en:Main
00:21:43.100                             : en:ED
00:23:14.000                             : en:Preview
-

AVdump

Код:
Duration: 00:23:30 (1410.18)
Track #1: default video (BDRip, encoded by Dez)
lang: eng (4)
codc: V_MPEG4/ISO/AVC -> H264/AVC (22)
reso: 1024x586 (512x293) -> Unknown (aka not common)
fram: 23.976 fps
rate: 3504 kbps (3503.94)
dura: 00:23:30 (1410.12)
size: 589.01 MB (617620905)
Track #2: default audio (5.1)
lang: jpn -> Japanese (2)
codc: A_AC3 -> AC3 (2)
chan: 6 -> 5.1 Surround
samp: 48000 Hz
rate: 640 kbps (640.09)
dura: 00:23:30 (1410.05)
size: 107.59 MB (112819697)
Sizes: (check sanity)
disk: 696.91 MB (730766618)
trac: 696.60 MB (730440602) [based on track size]
bitr: 696.61 MB (730446084) [based on bitrate]
tdif: 318.38 KB (326016) 0.04%
bdif: 313.02 KB (320533) 0.04%
- --

_________________

Показать сообщения:    

Текущее время: Сегодня 21:38

Часовой пояс: GMT



Вы не можете начинать темы
Вы не можете отвечать на сообщения
Вы не можете редактировать свои сообщения
Вы не можете удалять свои сообщения
Вы не можете голосовать в опросах
Вы не можете прикреплять файлы к сообщениям
Вы не можете скачивать файлы